<?xml version="1.0" standalone="no"?>
<!DOCTYPE svg PUBLIC "-//W3C//DTD SVG 1.1//EN" "http://www.w3.org/Graphics/SVG/1.1/DTD/svg11.dtd" >
<svg xmlns="http://www.w3.org/2000/svg" xmlns:xlink="http://www.w3.org/1999/xlink" version="1.1">
<metadata>
Created by FontForge 20170731 at Thu Mar 20 13:41:45 2014
 By Aleksey,,,
HTF Didot Copr. 1992 The Hoefler Type Foundry, Inc. This typeface and the digital software that describes it are the exclusive property of HTF.
</metadata>
<defs>
<font id="Didot-HTF-L64-Light" horiz-adv-x="668" >
  <font-face 
    font-family="Didot HTF-L64-Light"
    font-weight="500"
    font-stretch="normal"
    units-per-em="1000"
    panose-1="0 0 0 0 0 0 0 0 0 0"
    ascent="800"
    descent="-200"
    x-height="426"
    cap-height="709"
    bbox="-115 -363 1062 941.5"
    underline-thickness="20"
    underline-position="-163"
    unicode-range="U+0020-FB02"
  />
<missing-glyph horiz-adv-x="500" 
 />
    <glyph glyph-name=".notdef" horiz-adv-x="500" 
 />
    <glyph glyph-name=".null" horiz-adv-x="0" 
 />
    <glyph glyph-name="nonmarkingreturn" horiz-adv-x="333" 
 />
    <glyph glyph-name="space" unicode=" " horiz-adv-x="176" 
 />
    <glyph glyph-name="exclam" unicode="!" horiz-adv-x="203" 
d="M155 650q0 -32 -25 -208t-25 -275q0 -2 -3 -2t-3 2q0 99 -25 275t-25 208q0 76 53 76t53 -76zM147 35q0 -20 -13 -33.5t-32 -13.5t-32 13.5t-13 33.5t13 34t32 14t32 -14t13 -34z" />
    <glyph glyph-name="quotedbl" unicode="&#x22;" horiz-adv-x="329" 
d="M281 672q0 -29 -17.5 -94.5t-21.5 -90.5q0 -11 -1 -11q0 -1 -1.5 -1t-2.5 1v11q-4 25 -21.5 90.5t-17.5 94.5q0 20 10 37t31 17q22 0 32 -17t10 -37zM132 672q0 -29 -17 -95t-21 -90q0 -11 -1 -11q0 -1 -1.5 -1t-2.5 1v11q-4 25 -21.5 90.5t-17.5 94.5q0 20 10 37t31 17
q22 0 31.5 -17t9.5 -37z" />
    <glyph glyph-name="numbersign" unicode="#" horiz-adv-x="479" 
d="M463 296h-119l-46 -165h117q1 0 1 -3t-1 -3h-118l-49 -168q-2 -1 -6 1l48 167h-136l-47 -168q-1 -1 -4 -1t-3 2l49 167h-116q-1 0 -1 3t1 3h117l47 165h-115q-2 0 -2 3t2 3h116l47 166q2 1 6 -1l-47 -165h136l47 166q2 0 5 -1l-46 -165h117q1 0 1 -3t-1 -3zM338 296h-135
l-46 -165h135z" />
    <glyph glyph-name="dollar" unicode="$" horiz-adv-x="551" 
d="M502 203q0 -66 -51 -132t-137 -82v-90q0 -1 -4 -1t-4 1v88q-19 -4 -46 -4q-22 0 -32 1v-85q0 -1 -3 -1t-3 1v87q-77 8 -125.5 49.5t-48.5 87.5q0 30 18.5 49t41.5 19t40 -17t17 -40q0 -25 -18 -39.5t-18 -30.5q0 -65 93 -73v329q-75 28 -115 74t-40 126q0 70 45.5 128
t109.5 72v90q0 2 3 2t3 -2v-87q18 3 35 3t43 -2v86q0 2 4 2t4 -2v-88q76 -10 114 -53t38 -92q0 -30 -19 -49t-42 -19q-22 0 -39 17.5t-17 40.5q0 24 20 40.5t20 32.5q0 65 -75 77v-303q100 -37 144 -82.5t44 -128.5zM306 416v302q-11 2 -42 2q-20 0 -36 -4v-266
q33 -18 78 -34zM222 453v261q-46 -13 -76.5 -47.5t-30.5 -75.5q0 -82 107 -138zM446 126q0 57 -30 92.5t-102 66.5v-290q59 12 95.5 50t36.5 81zM306 -7v295q-28 13 -78 30v-328q10 -1 31 -1q28 0 47 4z" />
    <glyph glyph-name="percent" unicode="%" horiz-adv-x="719" 
d="M384 587q0 -82 -67.5 -155.5t-161.5 -73.5q-52 0 -85.5 34t-33.5 92q0 82 67.5 155.5t161.5 73.5q52 0 85.5 -34t33.5 -92zM586 725l-447 -749q-1 -2 -5 2l-1 2l448 749q1 2 4 -1q2 -2 1 -3zM683 220q0 -82 -68 -155.5t-162 -73.5q-53 0 -86 34t-33 92q0 82 68 155.5
t162 73.5q53 0 86 -34t33 -92zM324 639q0 37 -13 52.5t-46 15.5q-43 0 -71 -18q-46 -29 -71.5 -113t-25.5 -144q0 -37 13 -52.5t46 -15.5q42 0 70 18q46 29 72 113t26 144zM623 272q0 37 -13 52.5t-46 15.5q-42 0 -72 -18q-45 -29 -71 -113t-26 -144q0 -37 13 -52.5
t46 -15.5q41 0 71 18q46 29 72 113t26 144z" />
    <glyph glyph-name="ampersand" unicode="&#x26;" 
d="M682 377h-40q-38 0 -56 -17t-22 -58q-9 -113 -66 -204l12 -18q18 -26 49 -45t53 -19q8 0 16 3q35 14 48 50q2 0 4 -4q-16 -37 -57.5 -59t-87.5 -22q-57 0 -108 48q-77 -49 -168 -49q-97 0 -160.5 58t-63.5 148q0 144 165 252q-17 54 -17 97q0 85 39.5 136.5t100.5 51.5
q83 0 83 -83q0 -36 -32 -74t-86 -69q46 -149 206 -395q58 91 64 197q2 40 -15.5 57.5t-57.5 17.5h-36q-1 0 -1 3t1 3h233q2 0 2 -3t-2 -3zM400 643q0 73 -63 73q-27 0 -46.5 -24.5t-19.5 -70.5q0 -59 16 -114q50 29 81.5 65t31.5 71zM424 37q-30 28 -58 76
q-127 208 -165 322q-33 -27 -56 -70t-23 -90q0 -117 57 -189t158 -72q38 0 87 23z" />
    <glyph glyph-name="quotesingle" unicode="'" horiz-adv-x="182" 
d="M132 672q0 -29 -17 -95.5t-21 -89.5q0 -11 -1 -11q0 -1 -2 -1t-2 1v11q-4 24 -21.5 90t-17.5 95q0 20 9.5 37t31.5 17t31.5 -17t9.5 -37z" />
    <glyph glyph-name="parenleft" unicode="(" horiz-adv-x="265" 
d="M326 -240q1 -1 -2 -3q-2 -2 -3 -1q-117 81 -183 208.5t-66 282.5q0 156 66 283.5t183 207.5q3 1 5 -4q-65 -42 -100.5 -91t-55.5 -144.5t-20 -251.5t20 -251.5t55.5 -144.5t100.5 -91z" />
    <glyph glyph-name="parenright" unicode=")" horiz-adv-x="265" 
d="M197 247q0 -155 -66 -282.5t-182 -208.5q-4 -1 -6 4q65 42 100.5 91t56 144.5t20.5 251.5t-20.5 251.5t-56 144.5t-100.5 91q-1 1 3 4h3q116 -80 182 -207.5t66 -283.5z" />
    <glyph glyph-name="asterisk" unicode="*" horiz-adv-x="329" 
d="M278 545q0 -10 -6.5 -18t-15.5 -8q-12 0 -20 9t-23.5 27t-39.5 32l-5 3v-6q0 -34 10.5 -60t10.5 -35t-7 -15.5t-17 -6.5t-16.5 6.5t-6.5 15.5t10 35t10 60v6l-5 -3q-24 -14 -39.5 -32t-23.5 -27t-19 -9q-9 0 -16 8.5t-7 17.5q0 13 11 18q7 4 35.5 9t60.5 24
q-32 20 -61 24.5t-35 8.5q-11 5 -11 18q0 10 7 18.5t16 8.5q11 0 19 -9t23.5 -27t39.5 -33l5 -3v6q0 34 -10 60.5t-10 34.5q0 9 6.5 16t16.5 7t17 -7t7 -16q0 -8 -10.5 -34.5t-10.5 -60.5v-6l5 3q30 18 49.5 43.5t33.5 25.5q9 0 15.5 -8.5t6.5 -18.5q0 -12 -10 -18
q-6 -4 -35.5 -8.5t-61.5 -24.5q32 -19 61 -24t36 -9q10 -6 10 -18z" />
    <glyph glyph-name="plus" unicode="+" horiz-adv-x="418" 
d="M366 209h-153v-155q0 -2 -4 -2t-4 2v155h-154q-1 0 -1 4t1 4h154v157q0 2 4 2t4 -2v-157h153q2 0 2 -4t-2 -4z" />
    <glyph glyph-name="comma" unicode="," horiz-adv-x="163" 
d="M130 24q0 -38 -31 -88t-69 -61l-2 4q16 6 26 15q32 26 32 54q0 29 -29 49q-19 14 -19 39q0 20 13 33.5t32 13.5q22 0 34.5 -16t12.5 -43z" />
    <glyph glyph-name="hyphen" unicode="-" horiz-adv-x="321" 
d="M291 261q-11 -15 -14 -49h-248q-2 0 0 4q11 15 14 49h248q2 0 0 -4z" />
    <glyph glyph-name="period" unicode="." horiz-adv-x="163" 
d="M127 35q0 -20 -13 -34t-32 -14q-18 0 -31.5 14.5t-13.5 33.5t13.5 33t31.5 14q19 0 32 -13.5t13 -33.5z" />
    <glyph glyph-name="slash" unicode="/" horiz-adv-x="356" 
d="M385 754l-316 -777q-1 -1 -4 0t-3 3l317 777q1 1 4 0t2 -3z" />
    <glyph glyph-name="zero" unicode="0" horiz-adv-x="518" 
d="M472 212q0 -92 -62 -157t-151 -65q-88 0 -150 65t-62 157q0 91 62 156t150 65t150.5 -64.5t62.5 -156.5zM387 212q0 151 -49 192q-27 23 -79 23t-78 -23q-49 -41 -49 -192q0 -87 11 -129t38 -64q26 -23 78 -23t79 23q27 22 38 64t11 129z" />
    <glyph glyph-name="one" unicode="1" horiz-adv-x="312" 
d="M267 0h-221q-2 0 -2 3t2 3h64q7 0 7 4v407q0 3 -7 3h-64q-2 0 -2 3t2 3h221q2 0 2 -3t-2 -3h-64q-7 0 -7 -3v-407q0 -4 7 -4h64q2 0 2 -3t-2 -3z" />
    <glyph glyph-name="two" unicode="2" horiz-adv-x="451" 
d="M415 3q0 -3 -3 -3h-392q-3 0 -3.5 4t2.5 6q153 61 214 127t61 168q0 124 -104 124q-21 0 -34 -12t-13 -35q0 -8 3.5 -18.5t3.5 -18.5q0 -14 -10.5 -24t-31.5 -10q-20 0 -29.5 12.5t-9.5 30.5q0 31 32.5 56t88.5 25q81 0 132.5 -35t51.5 -105q0 -55 -53 -106t-180 -127
q-6 -3 2 -3h177q89 0 89 92q0 2 3 2t3 -2v-148z" />
    <glyph glyph-name="three" unicode="3" horiz-adv-x="399" 
d="M380 -71q0 -98 -72.5 -157t-157.5 -59q-65 0 -101 25.5t-36 62.5q0 43 39 43q20 0 31.5 -10t11.5 -24q0 -7 -4.5 -18t-4.5 -19q0 -31 16.5 -42.5t47.5 -11.5q67 0 106 43.5t39 156.5q0 114 -30.5 154t-90.5 40q-19 0 -75 -34q-3 -2 -4 2q0 2 1 3q87 50 122 95t35 126
q0 68 -26.5 96t-76.5 28q-43 0 -43 -45q0 -8 3.5 -18.5t3.5 -17.5q0 -35 -43 -35q-20 0 -29.5 13t-9.5 31q0 29 32 53.5t86 24.5q83 0 135.5 -34.5t52.5 -105.5q0 -56 -55.5 -103t-123.5 -72q13 2 36 2q86 0 135.5 -57t49.5 -136z" />
    <glyph glyph-name="four" unicode="4" horiz-adv-x="455" 
d="M461 0h-111v-278h-80v278h-248q-2 0 -2.5 2t1.5 3q34 48 66 116l189 358q25 -9 64.5 8t63.5 44q1 1 3 0t2 -2l-381 -523h242v130q49 5 75 77q1 1 3 1t2 -1v-207h111q1 0 1 -3t-1 -3z" />
    <glyph glyph-name="five" unicode="5" horiz-adv-x="408" 
d="M378 -52q0 -109 -65.5 -172t-149.5 -63q-65 0 -101.5 25.5t-36.5 62.5q0 18 9.5 30.5t29.5 12.5q21 0 31.5 -10t10.5 -24q0 -7 -3.5 -18t-3.5 -19q0 -31 16.5 -42.5t47.5 -11.5q64 0 97 47.5t33 171.5q0 123 -25 168.5t-81 45.5q-33 0 -59.5 -18.5t-35.5 -54.5
q-3 -6 -1 -19.5t2 -15.5q0 -8 -6 -8t-6 9q0 3 2 15t2 16v334q0 4 -1 6t-1 3t1.5 2t2.5 0q25 -25 85 -25q33 0 57 13.5t41.5 27t33.5 13.5q37 0 37 -35q0 -29 -32.5 -49.5t-77.5 -20.5q-42 0 -84.5 18t-56.5 44v-317q28 71 118 71q85 0 127.5 -60.5t42.5 -152.5z" />
    <glyph glyph-name="six" unicode="6" horiz-adv-x="515" 
d="M470 196q0 -84 -59.5 -144.5t-143.5 -60.5q-93 0 -149 76.5t-56 226.5q0 106 28.5 201t84.5 156.5t126 61.5q54 0 84 -25t30 -54q0 -18 -10 -30.5t-30 -12.5q-21 0 -31.5 10t-10.5 24q0 7 3.5 18t3.5 19q0 45 -39 45q-47 0 -83 -57t-53.5 -142t-20.5 -183q54 75 123 75
q84 0 143.5 -60.5t59.5 -143.5zM385 196q0 141 -45 178q-25 21 -73 21t-85.5 -36.5t-37.5 -61.5v-106q0 -76 12 -114t38 -60q25 -20 73 -20t73 20q24 21 34.5 60t10.5 119z" />
    <glyph glyph-name="seven" unicode="7" horiz-adv-x="418" 
d="M402 422q-23 -46 -62 -155l-196 -545h-80l304 636h-221q-47 0 -68.5 -19.5t-21.5 -64.5q0 -2 -2 -2t-2 2v149q0 3 2 3h338h9q4 0 0 -4z" />
    <glyph glyph-name="eight" unicode="8" horiz-adv-x="522" 
d="M471 178q0 -78 -60 -132.5t-150 -54.5q-83 0 -143.5 49t-60.5 136q0 64 40.5 117t106.5 81q-49 40 -77.5 81.5t-28.5 96.5q0 61 44 111t119 50q72 0 125 -40t53 -111q0 -51 -36.5 -95.5t-93.5 -67.5q80 -54 121 -106t41 -115zM380 559q0 148 -119 148q-51 0 -80 -28.5
t-29 -72.5t25 -84.5t53 -64t75 -55.5q25 20 37 32t25 45.5t13 79.5zM412 133q0 32 -11.5 59.5t-36.5 53t-45.5 42.5t-57.5 43.5t-54 39.5q-27 -24 -40.5 -39.5t-27.5 -55.5t-14 -94q0 -186 136 -186q25 0 49 6.5t48 21t39 43t15 66.5z" />
    <glyph glyph-name="nine" unicode="9" horiz-adv-x="508" 
d="M466 129q0 -107 -28.5 -200t-87 -154.5t-135.5 -61.5q-58 0 -90 26.5t-32 57.5q0 18 9.5 30t29.5 12q42 0 42 -33q0 -8 -4 -19t-4 -18q0 -50 49 -50q40 0 70.5 27.5t48.5 77t28 109t13 131.5q-42 -55 -120 -55q-87 0 -145.5 62t-58.5 151q0 88 58.5 150.5t145.5 62.5
q96 0 153.5 -75.5t57.5 -230.5zM385 224q0 82 -12 122t-40 61q-27 22 -78 22q-48 0 -76 -22q-25 -20 -33.5 -59t-8.5 -126q0 -79 9 -122.5t33 -63.5q30 -22 76 -22q44 0 79.5 23t42.5 49q8 18 8 138z" />
    <glyph glyph-name="colon" unicode=":" horiz-adv-x="163" 
d="M127 328q0 -20 -13 -34t-32 -14q-18 0 -31.5 14.5t-13.5 33.5t13.5 33t31.5 14q19 0 32 -13.5t13 -33.5zM127 35q0 -20 -13 -34t-32 -14q-18 0 -31.5 14.5t-13.5 33.5t13.5 33t31.5 14q19 0 32 -13.5t13 -33.5z" />
    <glyph glyph-name="semicolon" unicode=";" horiz-adv-x="163" 
d="M127 328q0 -20 -13 -34t-32 -14q-18 0 -31.5 14.5t-13.5 33.5t13.5 33t31.5 14q19 0 32 -13.5t13 -33.5zM130 24q0 -38 -31 -88t-69 -61l-2 4q16 6 26 15q32 26 32 54q0 29 -29 49q-19 14 -19 39q0 20 13 33.5t32 13.5q22 0 34.5 -16t12.5 -43z" />
    <glyph glyph-name="less" unicode="&#x3c;" horiz-adv-x="333" 
d="M292 78q2 -1 0 -4t-3 -2l-238 139q-2 2 0 4l238 139q2 1 3 -3q1 -1 0 -2l-232 -136z" />
    <glyph glyph-name="equal" unicode="=" horiz-adv-x="377" 
d="M326 270h-274q-2 0 -2 2.5t2 2.5h274q2 0 2 -2.5t-2 -2.5zM326 151h-274q-2 0 -2 3t2 3h274q2 0 2 -3t-2 -3z" />
    <glyph glyph-name="greater" unicode="&#x3e;" horiz-adv-x="333" 
d="M283 211l-238 -139q-1 -1 -3 2t0 4l232 135l-232 136q-2 1 1 4q1 2 2 1l238 -139q2 -2 0 -4z" />
    <glyph glyph-name="question" unicode="?" horiz-adv-x="410" 
d="M376 518q0 -89 -52 -145.5t-125 -56.5q-49 0 -71 27v-176q0 -2 -3 -2t-3 2v184v3l-1 1q0 1 1.5 2t2.5 0q9 -18 30.5 -26.5t43.5 -8.5q38 0 61 18q16 13 22 46t6 132q0 135 -52 179q-27 23 -75 23q-35 0 -45.5 -11.5t-10.5 -43.5q0 -17 6.5 -30t6.5 -26q0 -18 -12.5 -29.5
t-33.5 -11.5q-47 0 -47 49q0 43 35.5 76t100.5 33q94 0 154.5 -58t60.5 -150zM170 35q0 -20 -13 -33.5t-32 -13.5t-32.5 14t-13.5 33q0 20 13.5 34t32.5 14t32 -14t13 -34z" />
    <glyph glyph-name="at" unicode="@" horiz-adv-x="818" 
d="M752 404q0 -74 -37.5 -127.5t-87.5 -76.5t-101 -23q-103 0 -76 101q-20 -49 -59 -75t-73 -26q-54 0 -79 37t-25 90q0 82 67 155.5t155 73.5q24 0 46.5 -12t27.5 -32l12 36h59l-49 -160q-16 -51 -23.5 -81.5t-7.5 -53.5t10.5 -32.5t31.5 -9.5q81 0 142 59.5t61 155.5
q0 148 -93 232.5t-235 84.5q-149 0 -255 -107t-106 -258t106 -258.5t255 -107.5q129 0 228 83q3 1 5 -2q1 -2 -1 -3q-102 -84 -232 -84q-152 0 -259.5 109t-107.5 263t107.5 262.5t259.5 108.5q144 0 239 -86.5t95 -235.5zM505 471q6 21 -16.5 39t-52.5 18q-40 0 -77 -33
q-39 -33 -67 -113t-28 -137q0 -27 16.5 -43t43.5 -16q41 0 77 34t46 67z" />
    <glyph glyph-name="A" unicode="A" 
d="M696 0h-311q-1 0 -1 3t1 3h94q5 0 5 3l-85 235h-242l-72 -196q-5 -14 -7.5 -22t-3.5 -12.5t0 -6t3 -1.5h90q1 0 1 -3t-1 -3h-188q-1 0 -1 3t1 3h75q7 0 11 6.5t14 35.5l244 675q1 2 3.5 2t3.5 -2l273 -714q3 -3 8 -3h85q2 0 2 -3t-2 -3zM397 250l-119 329l-120 -329h239z
" />
    <glyph glyph-name="B" unicode="B" horiz-adv-x="655" 
d="M610 188q0 -78 -62 -133t-174 -55h-334q-2 0 -2 3t2 3h88q6 0 6 4v689q0 4 -6 4h-88q-2 0 -2 3t2 3h284q99 0 166.5 -42.5t67.5 -121.5q0 -69 -63.5 -118t-138.5 -49q108 0 181 -51.5t73 -138.5zM452 541q0 88 -33.5 125t-110.5 37h-58q-7 0 -7 -4v-318h99q58 0 84 35
t26 125zM503 182q0 112 -43 152.5t-128 40.5h-89v-365q0 -4 7 -4h96q76 0 116.5 41t40.5 135z" />
    <glyph glyph-name="C" unicode="C" horiz-adv-x="655" 
d="M606 -15q0 -1 -2.5 -1t-3.5 1q-2 11 -14 20.5t-31 9.5q-22 0 -82 -16t-89 -16q-141 0 -237 109.5t-96 261.5t93.5 262t234.5 110q25 0 77 -13.5t75 -13.5q21 0 35 7.5t16 16.5q0 1 2.5 1t2.5 -1v-201q0 -2 -2.5 -2t-2.5 2q0 74 -64 136t-139 62q-85 0 -128 -39
q-85 -76 -85 -327t85 -327q44 -39 133 -39q93 0 154.5 64.5t61.5 162.5q0 1 3 1t3 -1v-230z" />
    <glyph glyph-name="D" unicode="D" horiz-adv-x="742" 
d="M691 354q0 -146 -96 -250t-232 -104h-323q-2 0 -2 3t2 3h88q6 0 6 4v689q0 4 -6 4h-88q-2 0 -2 3t2 3h323q136 0 232 -104t96 -251zM576 354q0 241 -85 312q-45 37 -128 37h-113q-7 0 -7 -4v-689q0 -4 7 -4h113q83 0 128 37t65 105t20 206z" />
    <glyph glyph-name="E" unicode="E" horiz-adv-x="634" 
d="M609 3q0 -3 -3 -3h-566q-2 0 -2 3t2 3h88q6 0 6 4v689q0 4 -6 4h-88q-2 0 -2 3t2 3h513q3 0 3 -3v-180q0 -2 -3 -2t-3 2q0 77 -42.5 127t-131.5 50h-126q-6 0 -6 -4v-332h51q60 0 93 30.5t33 83.5q0 1 3 1t3 -1v-234q0 -2 -3 -2t-3 2q0 52 -33 83t-93 31h-51v-351
q0 -4 6 -4h129q117 0 170.5 55.5t53.5 141.5q0 1 3 1t3 -1v-200z" />
    <glyph glyph-name="F" unicode="F" horiz-adv-x="608" 
d="M556 526q0 -2 -3 -2t-3 2q0 76 -43 126.5t-132 50.5h-125q-7 0 -7 -4v-332h44q60 0 93 30.5t33 83.5q0 1 2.5 1t2.5 -1v-234q0 -2 -2.5 -2t-2.5 2q0 52 -33 83t-93 31h-44v-351q0 -4 7 -4h89q1 0 1 -3t-1 -3h-299q-2 0 -2 3t2 3h89q5 0 5 4v689q0 4 -5 4h-89q-2 0 -2 3
t2 3h513q3 0 3 -3v-180z" />
    <glyph glyph-name="G" unicode="G" horiz-adv-x="679" 
d="M709 268h-88q-6 0 -6 -3v-269q0 -1 -2 -1.5t-4 0.5t-2 2q-2 13 -16 27.5t-33 14.5q-17 0 -42 -14t-63.5 -28t-87.5 -14q-94 0 -167 53t-110 137t-37 181q0 152 94 262t235 110q24 0 68.5 -13.5t66.5 -13.5q20 0 34 7.5t16 16.5q1 1 3.5 1t2.5 -1v-200q0 -1 -3 -1t-3 1
q0 76 -54.5 136.5t-130.5 60.5q-84 0 -128 -39q-85 -74 -85 -327q0 -147 14 -219t54 -108q46 -39 130 -39q67 0 104 27.5t37 71.5v178q0 3 -7 3h-88q-2 0 -2 3t2 3h298q2 0 2 -3t-2 -3z" />
    <glyph glyph-name="H" unicode="H" horiz-adv-x="789" 
d="M749 0h-290q-1 0 -1 3t1 3h79q6 0 6 4v356h-301v-356q0 -4 7 -4h79q1 0 1 -3t-1 -3h-289q-2 0 -2 3t2 3h88q6 0 6 4v689q0 4 -6 4h-88q-2 0 -2 3t2 3h289q1 0 1 -3t-1 -3h-79q-7 0 -7 -4v-327h301v327q0 4 -6 4h-79q-1 0 -1 3t1 3h290q1 0 1 -3t-1 -3h-89q-6 0 -6 -4
v-689q0 -4 6 -4h89q1 0 1 -3t-1 -3z" />
    <glyph glyph-name="I" unicode="I" horiz-adv-x="378" 
d="M339 0h-299q-2 0 -2 3t2 3h88q6 0 6 4v689q0 4 -6 4h-88q-2 0 -2 3t2 3h299q1 0 1 -3t-1 -3h-89q-7 0 -7 -4v-689q0 -4 7 -4h89q1 0 1 -3t-1 -3z" />
    <glyph glyph-name="J" unicode="J" horiz-adv-x="472" 
d="M458 703h-89q-6 0 -6 -4v-532q0 -87 -50 -135.5t-143 -48.5q-66 0 -110.5 40t-44.5 88q0 34 21.5 55t47.5 21t45 -19t19 -46q0 -26 -20.5 -43.5t-20.5 -35.5q0 -21 19.5 -38t43.5 -17q35 0 59 21.5t24 60.5v629q0 4 -6 4h-89q-2 0 -2 3t2 3h300q2 0 2 -3t-2 -3z" />
    <glyph glyph-name="K" unicode="K" horiz-adv-x="658" 
d="M748 0h-342q-2 0 -2 3t2 3h101q6 0 3 3l-267 342v-341q0 -4 7 -4h88q2 0 2 -3t-2 -3h-298q-2 0 -2 3t2 3h88q6 0 6 4v689q0 4 -6 4h-88q-2 0 -2 3t2 3h298q2 0 2 -3t-2 -3h-88q-7 0 -7 -4v-342l265 304q36 42 26 42h-90q-2 0 -2 3t2 3h200q2 0 2 -3t-2 -3h-84
q-5 0 -11 -5.5t-33 -36.5l-203 -235l334 -417q3 -3 8 -3h93q2 0 2 -3t-2 -3z" />
    <glyph glyph-name="L" unicode="L" horiz-adv-x="602" 
d="M582 3q0 -3 -3 -3h-539q-2 0 -2 3t2 3h89q5 0 5 4v689q0 4 -5 4h-89q-2 0 -2 3t2 3h299q1 0 1 -3t-1 -3h-89q-6 0 -6 -4v-689q0 -4 6 -4h126q55 0 95.5 17.5t62.5 47.5t32 65t10 76q0 2 3 2t3 -2v-209z" />
    <glyph glyph-name="M" unicode="M" horiz-adv-x="883" 
d="M844 0h-299q-1 0 -1 3t1 3h88q7 0 7 4v683l-236 -706q-1 -2 -4 -2t-4 2l-259 706v-683q0 -4 6 -4h89q2 0 2 -3t-2 -3h-197q-2 0 -2 3t2 3h88q6 0 6 4v689q0 4 -6 4h-88q-2 0 -2 3t2 3h200q9 0 16 -18l200 -536l180 535q6 19 14 19h199q2 0 2 -3t-2 -3h-88q-7 0 -7 -4
v-689q0 -4 7 -4h88q2 0 2 -3t-2 -3z" />
    <glyph glyph-name="N" unicode="N" horiz-adv-x="738" 
d="M710 703h-89q-6 0 -6 -4v-712q0 -1 -1.5 -2t-3.5 -0.5t-3 2.5l-470 709v-686q0 -4 6 -4h89q2 0 2 -3t-2 -3h-197q-1 0 -1 3t1 3h89q5 0 5 4v689q0 4 -5 4h-89q-1 0 -1 3t1 3h211q10 0 22 -18l340 -513v521q0 4 -6 4h-89q-1 0 -1 3t1 3h197q1 0 1 -3t-1 -3z" />
    <glyph glyph-name="O" unicode="O" horiz-adv-x="759" 
d="M708 354q0 -154 -96.5 -262.5t-232.5 -108.5t-232 108.5t-96 262.5q0 152 93.5 262t234.5 110q137 0 233 -109t96 -263zM592 354q0 251 -85 327q-44 39 -128 39t-128 -39q-84 -76 -84 -327q0 -143 20.5 -215.5t63.5 -111.5q46 -39 128 -39t128 39q44 39 64.5 111
t20.5 216z" />
    <glyph glyph-name="P" unicode="P" horiz-adv-x="650" 
d="M618 486q0 -91 -74 -149.5t-192 -58.5q-60 0 -108 12v-280q0 -4 6 -4h89q1 0 1 -3t-1 -3h-299q-2 0 -2 3t2 3h89q5 0 5 4v689q0 4 -5 4h-89q-2 0 -2 3t2 3h298q131 0 205.5 -63.5t74.5 -159.5zM510 486q0 104 -48.5 160.5t-123.5 56.5h-88q-6 0 -6 -4v-399
q37 -16 108 -16q74 0 116 49t42 153z" />
    <glyph glyph-name="Q" unicode="Q" horiz-adv-x="759" 
d="M708 354q0 -109 -48.5 -195.5t-128.5 -133.5q-28 -17 -66.5 -32t-85 -30.5t-67.5 -23.5q65 0 112 -10.5t72 -27t42.5 -36.5t30.5 -40t29 -36.5t44.5 -27t70.5 -10.5q1 0 1 -2.5t-1 -2.5q-76 0 -131.5 10.5t-86 27t-51 36.5t-32.5 39.5t-23.5 36t-31 27t-48.5 10.5
q-10 0 -22 -7.5t-14 -7.5q-8 0 -8 6q0 11 33 14q22 10 138 50q-24 -5 -57 -5q-136 0 -232 108.5t-96 262.5q0 152 93.5 262t234.5 110q137 0 233 -109t96 -263zM592 354q0 251 -85 327q-44 39 -128 39q-85 0 -128 -39q-85 -76 -85 -327q0 -144 20.5 -216t64.5 -111t128 -39
q82 0 128 39q44 39 64.5 111t20.5 216z" />
    <glyph glyph-name="R" unicode="R" horiz-adv-x="690" 
d="M746 18q-35 -35 -94 -35q-67 0 -107 46.5t-40 147.5v65q0 63 -44 93.5t-117 30.5h-101v-356q0 -4 7 -4h115q1 0 1 -3t-1 -3h-326q-1 0 -1 3t1 3h89q6 0 6 4v689q0 4 -6 4h-89q-1 0 -1 3t1 3h307q111 0 176.5 -49.5t65.5 -124.5q0 -70 -64 -118t-156 -48q125 0 188 -52
t63 -142v-90q0 -39 16.5 -64.5t44.5 -25.5q38 0 62 28q2 1 4 -3q1 -1 0 -2zM478 531q0 172 -157 172h-71q-7 0 -7 -4v-327h101q76 0 105 33t29 126z" />
    <glyph glyph-name="S" unicode="S" horiz-adv-x="556" 
d="M524 202q0 -34 -16 -71.5t-45 -71t-76.5 -55t-104.5 -21.5q-40 0 -92.5 20.5t-72.5 20.5t-36 -12t-19 -27q0 -1 -2.5 -1t-2.5 1v220q0 2 2.5 2t2.5 -2q0 -42 26.5 -91.5t79 -87.5t113.5 -38q83 0 135 44t52 97q0 68 -48.5 105.5t-174.5 82.5q-82 30 -126 75.5t-44 127.5
t56.5 144t132.5 62q29 0 70 -13.5t60 -13.5q37 0 41 24q1 2 3.5 2t2.5 -2v-165q0 -2 -3 -2t-3 2q0 68 -53 115t-117 47q-59 0 -100.5 -40t-41.5 -92q0 -104 188 -171q54 -19 89.5 -36.5t65.5 -42t44 -58t14 -78.5z" />
    <glyph glyph-name="T" unicode="T" horiz-adv-x="623" 
d="M602 496q0 -2 -3 -2t-3 2q0 93 -49.5 150t-153.5 57h-23q-6 0 -6 -4v-689q0 -4 6 -4h89q1 0 1 -3t-1 -3h-299q-2 0 -2 3t2 3h88q6 0 6 4v689q0 4 -6 4h-22q-104 0 -151.5 -56.5t-47.5 -150.5q0 -2 -3 -2t-3 2v210q0 3 3 3h576q2 0 2 -3v-210z" />
    <glyph glyph-name="U" unicode="U" horiz-adv-x="723" 
d="M713 703h-89q-6 0 -6 -4v-489q0 -107 -60 -167t-183 -60q-118 0 -189 57.5t-71 165.5v493q0 4 -6 4h-89q-2 0 -2 3t2 3h300q2 0 2 -3t-2 -3h-89q-6 0 -6 -4v-493q0 -209 175 -209q106 0 158.5 57t52.5 156v489q0 4 -6 4h-88q-1 0 -1 3t1 3h196q1 0 1 -3t-1 -3z" />
    <glyph glyph-name="V" unicode="V" horiz-adv-x="700" 
d="M727 703h-83q-10 0 -24 -42l-238 -676q-1 -3 -3 -2.5t-3 2.5l-311 714q-1 4 -8 4h-91q-2 0 -2 3t2 3h328q2 0 2 -3t-2 -3h-105q-4 0 -5 -1t0 -3l243 -571l186 533q14 41 7 42h-94q-2 0 -2 3t2 3h201q1 0 1 -3t-1 -3z" />
    <glyph glyph-name="W" unicode="W" horiz-adv-x="1011" 
d="M1061 703h-82q-11 0 -25 -42l-232 -676q-1 -1 -4 -1t-4 1l-191 522l-180 -522q-1 -3 -3.5 -2.5t-3.5 2.5l-281 714q-2 4 -8 4h-91q-2 0 -2 3t2 3h313q1 0 1 -3t-1 -3h-91q-6 0 -4 -4l217 -559l128 376l-68 183q0 4 -8 4h-76q-1 0 -1 3t1 3h310q1 0 1 -3t-1 -3h-106
q-3 0 -4.5 -1t-0.5 -3l203 -563l180 530q5 13 7 20t2.5 11t-0.5 5t-4 1h-94q-2 0 -2 3t2 3h201q1 0 1 -3t-1 -3z" />
    <glyph glyph-name="X" unicode="X" horiz-adv-x="684" 
d="M717 0h-328q-1 0 -1 3t1 3h101q4 1 4 3l-173 308l-165 -269q-23 -39 -18 -41q1 -1 4 -1h86q2 0 2 -3t-2 -3h-200q-2 0 -2 3t2 3h87q8 0 33 42l169 277l-214 374q-2 4 -9 4h-91q-1 0 -1 3t1 3h326q1 0 1 -3t-1 -3h-101q-5 0 -3 -4l154 -273l142 235q21 40 15 42h-88
q-2 0 -2 3t2 3h202q2 0 2 -3t-2 -3h-87q-9 0 -34 -42l-147 -242l234 -410q3 -3 8 -3h93q1 0 1 -3t-1 -3z" />
    <glyph glyph-name="Y" unicode="Y" horiz-adv-x="639" 
d="M662 703h-77q-10 0 -31 -44l-157 -335v-314q0 -4 6 -4h89q2 0 2 -3t-2 -3h-300q-2 0 -2 3t2 3h89q7 0 7 4v299l-202 390q-2 4 -8 4h-92q-2 0 -2 3t2 3h332q1 0 1 -3t-1 -3h-107q-5 0 -3 -4l187 -365l153 327q18 41 12 42h-99q-1 0 -1 3t1 3h201q2 0 2 -3t-2 -3z" />
    <glyph glyph-name="Z" unicode="Z" horiz-adv-x="639" 
d="M588 3q0 -3 -2 -3h-528q-5 0 -1 7l406 692q2 4 -3 4h-166q-96 0 -146.5 -58t-50.5 -149q0 -2 -3 -2t-3 2v210q0 3 3 3h489q7 0 1 -8l-406 -692q1 -2 4 -3h199q96 0 149 60t53 151q0 1 2.5 1t2.5 -1v-214z" />
    <glyph glyph-name="bracketleft" unicode="[" horiz-adv-x="246" 
d="M263 -244h-174q-3 0 -3 4v974q0 3 3 3h174q1 0 1 -2.5t-1 -2.5h-94q-6 0 -6 -4v-963q0 -3 6 -3h94q1 0 1 -3t-1 -3z" />
    <glyph glyph-name="backslash" unicode="\" horiz-adv-x="356" 
d="M294 -20q1 -2 -2 -3t-4 0l-316 777q-1 2 2 3t4 0z" />
    <glyph glyph-name="bracketright" unicode="]" horiz-adv-x="248" 
d="M163 -240q0 -4 -3 -4h-174q-2 0 -2 3t2 3h94q6 0 6 3v963q0 4 -6 4h-94q-2 0 -2 2.5t2 2.5h174q3 0 3 -3v-974z" />
    <glyph glyph-name="asciicircum" unicode="^" horiz-adv-x="325" 
d="M294 533q1 -1 -0.5 -3t-3.5 -1l-124 85l-113 -85q-2 -1 -3 1t0 3q83 97 119 153q1 2 3 0q37 -56 122 -153z" />
    <glyph glyph-name="underscore" unicode="_" horiz-adv-x="566" 
d="M530 0h-494q-2 0 -2 3t2 3h494q2 0 2 -3t-2 -3z" />
    <glyph glyph-name="grave" unicode="`" horiz-adv-x="352" 
d="M299 524q0 -1 -1 -5q-209 50 -209 137q0 12 8.5 20.5t21.5 8.5q18 0 32.5 -20.5t26 -47t43 -54.5t78.5 -39z" />
    <glyph glyph-name="a" unicode="a" horiz-adv-x="438" 
d="M429 30q-4 -15 -22 -26.5t-44 -11.5q-31 0 -50 18t-25 48q-9 -31 -41.5 -48.5t-74.5 -17.5q-57 0 -95 24.5t-38 79.5q0 37 13.5 63t36.5 38.5t40.5 18t37.5 7.5q4 0 11 1q106 9 106 29v76q0 55 -22.5 77.5t-54.5 22.5q-44 0 -44 -43q0 -9 3.5 -19.5t3.5 -17.5
q0 -14 -10.5 -24t-31.5 -10q-20 0 -30 12.5t-10 30.5q0 29 32.5 53t86.5 24q157 0 157 -181v-213q0 -33 26 -33q12 0 21.5 8t13.5 17q0 2 2.5 0t1.5 -3zM284 76v162q-10 -7 -27 -10.5t-40.5 -6t-30.5 -3.5q-69 -14 -69 -122q0 -95 73 -95q37 0 65.5 23t28.5 52z" />
    <glyph glyph-name="b" unicode="b" horiz-adv-x="503" 
d="M463 211q0 -85 -61.5 -152.5t-146.5 -67.5q-56 0 -94 41v-29q0 -3 -3 -3h-138q-2 0 -2 3t2 3h55q7 0 7 4v715q0 4 -7 4h-55q-2 0 -2 3t2 3h138q3 0 3 -3v-337q38 40 93 40q84 0 146.5 -69.5t62.5 -154.5zM381 211q0 153 -50 195q-27 23 -77 23q-59 0 -93 -45v-330
q11 -28 37.5 -43t56.5 -15q48 0 76 23q50 42 50 192z" />
    <glyph glyph-name="c" unicode="c" horiz-adv-x="432" 
d="M413 85q-61 -94 -164 -94q-86 0 -147 65t-61 157t61 157t147 65q64 0 98 -28t34 -66q0 -42 -41 -42q-18 0 -28.5 10t-10.5 25q0 11 5.5 22.5t5.5 26.5q0 26 -13.5 36t-49.5 10q-51 0 -77 -23t-38 -65.5t-12 -127.5q0 -86 12 -128.5t38 -65.5q27 -23 77 -23q102 0 161 93
q2 0 3 -4z" />
    <glyph glyph-name="d" unicode="d" horiz-adv-x="493" 
d="M484 0h-138q-3 0 -3 3v44q-7 -22 -31.5 -39t-63.5 -17q-85 0 -145.5 67.5t-60.5 152.5t62 154.5t147 69.5q55 0 92 -40v330q0 4 -6 4h-55q-2 0 -2 3t2 3h138q3 0 3 -3v-722q0 -4 6 -4h55q2 0 2 -3t-2 -3zM343 75v309q-34 45 -92 45q-51 0 -78 -23q-50 -42 -50 -195
q0 -150 50 -192q28 -23 75 -23q45 0 70 23.5t25 55.5z" />
    <glyph glyph-name="e" unicode="e" horiz-adv-x="452" 
d="M418 240q0 -3 -3 -3h-289q-1 -8 -1 -25q0 -88 9.5 -129.5t33.5 -63.5q28 -23 74 -23q102 0 161 93q1 1 3 -0.5t1 -2.5q-62 -95 -165 -95q-86 0 -143.5 64.5t-57.5 156.5q0 93 57.5 158t143.5 65q44 0 79.5 -19.5t55.5 -50.5t30.5 -63t10.5 -62zM337 243q-3 130 -35 163
q-22 23 -60 23q-47 0 -74 -23q-39 -35 -42 -163h211z" />
    <glyph glyph-name="f" unicode="f" horiz-adv-x="291" 
d="M351 668q0 -19 -12.5 -32.5t-31.5 -13.5q-42 0 -42 34q0 10 6 22t6 25q0 14 -9.5 23.5t-25.5 9.5q-25 0 -42.5 -28t-17.5 -90v-188q0 -4 6 -4h83q1 0 1 -3t-1 -3h-83q-6 0 -6 -3v-407q0 -4 6 -4h55q1 0 1 -3t-1 -3h-202q-2 0 -2 3t2 3h54q7 0 7 4v407q0 3 -7 3h-68
q-2 0 -2 3t2 3h68q7 0 7 4v20q0 157 41.5 225.5t119.5 68.5q35 0 61.5 -22t26.5 -54z" />
    <glyph glyph-name="g" unicode="g" horiz-adv-x="486" 
d="M506 389q0 -14 -9 -24.5t-22 -10.5t-21.5 7.5t-8.5 16.5q0 8 4 14t4 11q0 16 -18 16q-35 0 -57 -49q32 -41 32 -96q0 -66 -48.5 -113t-116.5 -47q-78 0 -124 56q-33 -23 -33 -66t20.5 -61.5t69.5 -18.5h115q102 0 151 -34.5t49 -115.5q0 -59 -39 -103.5t-92.5 -65.5
t-109.5 -21q-100 0 -163.5 40t-63.5 98q0 42 29.5 82t72.5 51q-83 22 -83 97q0 42 18 70.5t55 52.5q-36 44 -36 99q0 67 48 114t116 47q79 0 128 -60q30 60 84 60q20 0 34.5 -12.5t14.5 -33.5zM335 275q0 109 -34 139q-19 15 -56 15q-35 0 -54 -15q-33 -30 -33 -139
q0 -62 7.5 -92t25.5 -46q20 -17 54 -17q36 0 56 17q19 16 26.5 46t7.5 92zM448 -169q0 53 -26.5 86t-81.5 33h-171q-19 0 -32 3q-48 -30 -48 -119q0 -77 41.5 -110.5t121.5 -33.5q79 0 137.5 37.5t58.5 103.5z" />
    <glyph glyph-name="h" unicode="h" horiz-adv-x="511" 
d="M501 0h-203q-2 0 -2 3t2 3h55q6 0 6 4v317q0 49 -27 75.5t-57 26.5q-86 0 -114 -86v-333q0 -4 7 -4h55q1 0 1 -3t-1 -3h-203q-2 0 -2 3t2 3h55q7 0 7 4v715q0 4 -7 4h-55q-2 0 -2 3t2 3h138q3 0 3 -3v-375q13 40 44.5 59t69.5 19q77 0 120.5 -43.5t43.5 -123.5v-258
q0 -4 7 -4h55q1 0 1 -3t-1 -3z" />
    <glyph glyph-name="i" unicode="i" horiz-adv-x="253" 
d="M185 681q0 -22 -16 -37.5t-38 -15.5t-37 15.5t-15 37.5q0 23 15 38.5t37 15.5q23 0 38.5 -15.5t15.5 -38.5zM234 0h-203q-1 0 -1 3t1 3h55q6 0 6 4v406q0 4 -6 4h-55q-1 0 -1 3t1 3h139q2 0 2 -3v-413q0 -4 7 -4h55q2 0 2 -3t-2 -3z" />
    <glyph glyph-name="j" unicode="j" horiz-adv-x="266" 
d="M185 681q0 -22 -16 -37.5t-38 -15.5t-37 15.5t-15 37.5q0 23 15 38.5t37 15.5q23 0 38.5 -15.5t15.5 -38.5zM172 -23q0 -160 -37 -227t-114 -67q-36 0 -62 19t-26 49q0 20 12.5 33.5t31.5 13.5q20 0 31 -9.5t11 -24.5q0 -11 -6 -22.5t-6 -24.5q0 -26 35 -26q50 0 50 118
v608q0 3 -7 3h-54q-1 0 -1 3t1 3h139q2 0 2 -3v-446z" />
    <glyph glyph-name="k" unicode="k" horiz-adv-x="467" 
d="M510 0h-227q-1 0 -1 3t1 3h54q6 0 3 4l-178 219v-219q0 -4 7 -4h55q2 0 2 -3t-2 -3h-203q-2 0 -2 3t2 3h55q6 0 6 4v715q0 4 -6 4h-55q-2 0 -2 3t2 3h139q2 0 2 -3v-497l158 143q43 41 37 42h-69q-2 0 -2 3t2 3h149q1 0 1 -3t-1 -3h-54q-12 0 -56 -41l-111 -102l222 -267
q1 -4 9 -4h63q2 0 2 -3t-2 -3z" />
    <glyph glyph-name="l" unicode="l" horiz-adv-x="232" 
d="M223 0h-203q-2 0 -2 3t2 3h55q7 0 7 4v715q0 4 -7 4h-55q-2 0 -2 3t2 3h139q2 0 2 -3v-722q0 -4 7 -4h55q1 0 1 -3t-1 -3z" />
    <glyph glyph-name="m" unicode="m" horiz-adv-x="789" 
d="M779 0h-202q-2 0 -2 3t2 3h54q7 0 7 4v317q0 49 -27 75.5t-58 26.5q-51 0 -82 -30.5t-31 -64.5v-324q0 -4 6 -4h55q2 0 2 -3t-2 -3h-203q-2 0 -2 3t2 3h55q6 0 6 4v317q0 49 -27 75.5t-57 26.5q-87 0 -113 -86v-333q0 -4 6 -4h55q1 0 1 -3t-1 -3h-202q-2 0 -2 3t2 3h54
q7 0 7 4v407q0 3 -7 3h-54q-2 0 -2 3t2 3h138q3 0 3 -3v-66q13 40 44 59t69 19q131 0 161 -85q10 41 44.5 63t72.5 22q165 0 165 -146v-279q0 -4 6 -4h55q1 0 1 -3t-1 -3z" />
    <glyph glyph-name="n" unicode="n" horiz-adv-x="511" 
d="M501 0h-203q-2 0 -2 3t2 3h55q6 0 6 4v317q0 49 -27 75.5t-57 26.5q-87 0 -113 -86v-333q0 -4 6 -4h55q1 0 1 -3t-1 -3h-202q-1 0 -1 3t1 3h55q6 0 6 4v407q0 3 -6 3h-55q-1 0 -1 3t1 3h138q3 0 3 -3v-66q13 40 44 59t69 19q77 0 121 -43.5t44 -123.5v-258q0 -4 6 -4h55
q2 0 2 -3t-2 -3z" />
    <glyph glyph-name="o" unicode="o" horiz-adv-x="498" 
d="M458 213q0 -92 -61 -157t-148 -65q-86 0 -147 65t-61 157t61 157t147 65q87 0 148 -65t61 -157zM376 213q0 149 -50 193q-27 23 -77 23q-51 0 -77 -23q-50 -44 -50 -193q0 -86 12 -128.5t38 -65.5q27 -23 77 -23q49 0 77 23q26 23 38 65.5t12 128.5z" />
    <glyph glyph-name="p" unicode="p" horiz-adv-x="503" 
d="M463 210q0 -85 -61 -152t-146 -67q-56 0 -95 41v-332q0 -3 7 -3h55q1 0 1 -3t-1 -3h-203q-2 0 -2 3t2 3h55q7 0 7 3v716q0 4 -7 4h-55q-2 0 -2 3t2 3h139q2 0 2 -3v-29q38 41 93 41q85 0 147 -69.5t62 -155.5zM381 210q0 154 -50 197q-26 22 -77 22q-60 0 -93 -45v-330
q11 -27 37.5 -42t57.5 -15q49 0 75 22q50 43 50 191z" />
    <glyph glyph-name="q" unicode="q" horiz-adv-x="492" 
d="M483 -309h-203q-2 0 -2 3t2 3h55q7 0 7 3v346q-9 -22 -33 -38.5t-62 -16.5q-85 0 -145.5 67t-60.5 152q0 86 62 155.5t146 69.5q55 0 93 -41v29q0 3 2 3h139q1 0 1 -3t-1 -3h-55q-6 0 -6 -4v-716q0 -3 6 -3h55q1 0 1 -3t-1 -3zM342 74v310q-33 45 -93 45q-51 0 -77 -22
q-50 -44 -50 -197q0 -147 50 -191q26 -22 77 -22q43 0 68 22.5t25 54.5z" />
    <glyph glyph-name="r" unicode="r" horiz-adv-x="349" 
d="M326 373q0 -19 -12.5 -31.5t-29.5 -12.5q-19 0 -30.5 9.5t-11.5 22.5q0 11 5.5 20.5t5.5 16.5q0 22 -25 22q-42 0 -66 -79v-332q0 -3 6 -3h56q2 0 2 -3t-2 -3h-204q-2 0 -2 3t2 3h55q7 0 7 3v407q0 4 -7 4h-55q-2 0 -2 3t2 3h139q3 0 3 -3v-66q26 78 94 78q70 0 70 -62z
" />
    <glyph glyph-name="s" unicode="s" horiz-adv-x="371" 
d="M339 132q0 -64 -36 -102.5t-105 -38.5q-30 0 -63.5 13.5t-49.5 13.5q-12 0 -22.5 -6.5t-12.5 -12.5q-2 -2 -6 0l5 142q0 1 3 1t3 -1q-2 -56 40 -100t103 -44q43 0 69 22.5t26 65.5q0 39 -27 60.5t-87 41.5q-57 19 -86.5 46t-29.5 73q0 58 34 93.5t82 35.5q17 0 38.5 -5.5
t43.5 -5.5q20 0 22 14q0 2 2.5 2t2.5 -2v-114q0 -2 -2.5 -2t-2.5 2q0 48 -32 76.5t-72 28.5q-37 0 -57.5 -18t-20.5 -51q0 -38 27 -60.5t85 -39.5q126 -38 126 -128z" />
    <glyph glyph-name="t" unicode="t" horiz-adv-x="287" 
d="M270 79q-22 -88 -96 -88q-83 0 -83 98v327q0 4 -6 4h-69q-2 0 -2 3t2 3h69q6 0 6 3v114q61 9 75 49q0 2 2.5 2t2.5 -2v-163q0 -3 7 -3h82q2 0 2 -3t-2 -3h-82q-7 0 -7 -4v-379q0 -29 29 -29q21 0 39 19.5t26 54.5q1 1 3 -0.5t2 -2.5z" />
    <glyph glyph-name="u" unicode="u" horiz-adv-x="501" 
d="M491 0h-139q-3 0 -3 3v66q-13 -40 -44 -59t-69 -19q-77 0 -120.5 40.5t-43.5 119.5v265q0 4 -6 4h-55q-1 0 -1 3t1 3h138q3 0 3 -3v-324q0 -49 27 -75.5t57 -26.5q87 0 113 86v333q0 4 -6 4h-55q-2 0 -2 3t2 3h139q2 0 2 -3v-414q0 -3 7 -3h55q1 0 1 -3t-1 -3z" />
    <glyph glyph-name="v" unicode="v" horiz-adv-x="420" 
d="M448 420h-54q-5 0 -9.5 -7t-14.5 -35l-142 -386q-1 -2 -3.5 -2t-3.5 2l-195 424q-1 4 -8 4h-47q-2 0 -2 3t2 3h198q1 0 1 -3t-1 -3h-53q-4 0 -5 -1t0 -3l145 -332l108 294q14 41 7 42h-54q-1 0 -1 3t1 3h131q2 0 2 -3t-2 -3z" />
    <glyph glyph-name="w" unicode="w" horiz-adv-x="673" 
d="M704 420h-53q-10 0 -24 -42l-135 -386q-1 -2 -4 -2t-4 2l-146 333l-117 -333q-1 -2 -4 -2t-4 2l-186 424q-3 4 -8 4h-49q-2 0 -2 3t2 3h192q2 0 2 -3t-2 -3h-50q-4 0 -5 -1t0 -3l143 -321l85 238l-38 83q-1 4 -8 4h-41q-2 0 -2 3t2 3h190q2 0 2 -3t-2 -3h-55q-4 0 -5 -1
t0 -3l143 -320l100 282q14 41 6 42h-54q-1 0 -1 3t1 3h131q2 0 2 -3t-2 -3z" />
    <glyph glyph-name="x" unicode="x" horiz-adv-x="455" 
d="M474 0h-206q-2 0 -2 3t2 3h53q4 1 4 3l-116 177l-103 -139q-29 -40 -22 -41h69q1 0 1 -3t-1 -3h-148q-1 0 -1 3t1 3h53q11 0 41 41l106 144l-148 225q-3 4 -9 4h-50q-2 0 -2 3t2 3h207q1 0 1 -3t-1 -3h-54q-5 0 -4 -4l105 -159l90 121q31 42 21 42h-69q-2 0 -2 3t2 3h149
q1 0 1 -3t-1 -3h-55q-6 0 -13 -7.5t-26 -34.5l-93 -126l160 -243q2 -3 8 -3h50q2 0 2 -3t-2 -3z" />
    <glyph glyph-name="y" unicode="y" horiz-adv-x="418" 
d="M447 420h-54q-5 0 -9.5 -7t-14.5 -35l-226 -615q-17 -45 -35 -63t-48 -18q-31 0 -51 15.5t-20 41.5q0 24 13.5 39.5t32.5 15.5t29.5 -10t10.5 -25q0 -12 -9.5 -25.5t-9.5 -23.5q0 -13 29 -13q28 0 51 64l85 228l-196 427q-1 4 -8 4h-47q-2 0 -2 3t2 3h198q2 0 2 -3t-2 -3
h-53q-4 0 -5 -1t0 -3l144 -331l109 293q14 41 7 42h-54q-2 0 -2 3t2 3h131q1 0 1 -3t-1 -3z" />
    <glyph glyph-name="z" unicode="z" horiz-adv-x="422" 
d="M381 3q0 -3 -3 -3h-350q-5 0 -1 7l260 409q3 4 -4 4h-90q-70 0 -101 -29.5t-31 -89.5q0 -1 -2.5 -1t-2.5 1v122q0 3 3 3h313q6 0 1 -8l-262 -409q-1 -2 0 -2.5t5 -0.5h115q144 0 144 132q0 2 3 2t3 -2v-135z" />
    <glyph glyph-name="braceleft" unicode="{" horiz-adv-x="265" 
d="M266 -244h-8q-86 0 -130.5 57t-44.5 152q0 57 32 142t32 107q0 24 -16 28q-4 1 -10 1t-13.5 -1t-11.5 -1q-7 0 -7 6q0 5 7 5q4 0 11.5 -1t13.5 -1t10 1q16 6 16 28q0 23 -32 107.5t-32 141.5q0 95 44.5 152t130.5 57h8q1 0 1 -2.5t-1 -2.5h-8q-111 0 -111 -162
q0 -36 21.5 -122t21.5 -124q0 -25 -15 -47.5t-42 -29.5q27 -8 42 -30.5t15 -47.5q0 -38 -21.5 -124t-21.5 -122q0 -161 111 -161h8q1 0 1 -3t-1 -3z" />
    <glyph glyph-name="bar" unicode="|" horiz-adv-x="155" 
d="M81 -23q0 -1 -3.5 -1t-3.5 1v779q0 2 3.5 2t3.5 -2v-779z" />
    <glyph glyph-name="braceright" unicode="}" horiz-adv-x="265" 
d="M182 -35q0 -95 -44.5 -152t-130.5 -57h-7q-2 0 -2 3t2 3h7q111 0 111 161q0 36 -21.5 122t-21.5 124q0 25 15 47.5t42 30.5q-27 7 -42 29.5t-15 47.5q0 38 21.5 124t21.5 122q0 162 -111 162h-7q-2 0 -2 2.5t2 2.5h7q86 0 130.5 -57t44.5 -152q0 -57 -32 -141.5
t-32 -107.5q0 -22 17 -28q4 -1 10 -1q5 0 12.5 1t11.5 1q8 0 8 -5q0 -6 -8 -6q-4 0 -11.5 1t-12.5 1q-6 0 -10 -1q-17 -4 -17 -28q0 -22 32 -107t32 -142z" />
    <glyph glyph-name="asciitilde" unicode="~" horiz-adv-x="404" 
d="M369 414q0 -48 -30.5 -78t-76.5 -30q-37 0 -90 30t-72 30q-28 0 -43.5 -20t-15.5 -52q0 -2 -3.5 -2t-3.5 2q0 47 30.5 77.5t76.5 30.5q37 0 89.5 -30t72.5 -30q29 0 44.5 20t15.5 52q0 2 3 2t3 -2z" />
    <glyph glyph-name="exclamdown" unicode="&#xa1;" horiz-adv-x="203" 
d="M146 328q0 -20 -13.5 -34t-32.5 -14q-18 0 -31 14t-13 34t13 34t31 14q19 0 32.5 -14t13.5 -34zM154 -288q0 -75 -54 -75q-52 0 -52 75q0 32 25 208.5t25 275.5q0 2 2.5 2t2.5 -2q0 -99 25.5 -275.5t25.5 -208.5z" />
    <glyph glyph-name="cent" unicode="&#xa2;" horiz-adv-x="434" 
d="M414 85q-64 -94 -170 -95v-69q0 -2 -3.5 -2t-3.5 2v70q-82 5 -138.5 69t-56.5 152t56.5 152t138.5 69v70q0 2 3.5 2t3.5 -2v-69q65 2 101.5 -27t36.5 -67q0 -42 -41 -42q-17 0 -28 10t-11 24q0 12 5.5 24t5.5 26q0 27 -15 37t-54 9v-432q107 0 167 93q2 0 3 -4zM237 -4
v431q-41 -2 -64 -22q-26 -23 -38 -65.5t-12 -127.5t12 -127.5t38 -65.5q22 -19 64 -23z" />
    <glyph glyph-name="sterling" unicode="&#xa3;" horiz-adv-x="576" 
d="M558 126q-4 -52 -53 -97.5t-110 -45.5q-78 0 -186 60q-29 -26 -64.5 -43t-62.5 -17q-21 0 -39.5 12t-18.5 39q0 31 31.5 57t88.5 26q55 0 103 -15q18 23 18 63q0 18 -6 42t-13 42t-20.5 51.5t-19.5 49.5h-99q-1 0 -1 2.5t1 2.5h98q-29 78 -29 127q0 97 54 170.5t142 73.5
q49 0 87.5 -31.5t38.5 -63.5q0 -21 -15 -36t-36 -15q-42 0 -42 37q0 12 9.5 27.5t9.5 28.5q0 24 -14 34.5t-47 10.5q-48 0 -74.5 -46t-26.5 -137q0 -32 12 -95t15 -85h103q2 0 2 -2.5t-2 -2.5h-103q8 -51 8 -107q0 -83 -42 -143q15 -4 56.5 -19t81.5 -23.5t88 -8.5
q31 0 49 23t22 56q1 2 3.5 1t2.5 -3zM201 48q-74 37 -108 37q-30 0 -47 -14.5t-17 -38.5q0 -21 18.5 -32.5t37.5 -11.5q22 0 56.5 17.5t59.5 42.5z" />
    <glyph glyph-name="yen" unicode="&#xa5;" horiz-adv-x="605" 
d="M627 703h-79q-9 0 -29 -42l-133 -279h168q2 0 2 -3t-2 -3h-171l-23 -50v-76h194q2 0 2 -3t-2 -3h-194v-234q0 -4 6 -4h90q2 0 2 -3t-2 -3h-273q-2 0 -2 3t2 3h89q7 0 7 4v234h-194q-1 0 -1 3t1 3h194v72l-28 54h-166q-1 0 -1 3t1 3h163l-166 317q-2 4 -9 4h-93q-2 0 -2 3
t2 3h305q1 0 1 -3t-1 -3h-107q-6 0 -4 -4l187 -356l151 318q16 41 12 42h-99q-2 0 -2 3t2 3h202q1 0 1 -3t-1 -3z" />
    <glyph glyph-name="section" unicode="&#xa7;" horiz-adv-x="514" 
d="M463 200q0 -47 -20.5 -82.5t-66.5 -80.5q62 -57 62 -131q0 -94 -57.5 -158.5t-150.5 -64.5q-65 0 -123.5 41.5t-58.5 82.5q0 21 11 31.5t29 10.5q19 0 30.5 -9.5t11.5 -26.5q0 -7 -5.5 -19.5t-5.5 -24.5q0 -32 34 -56t77 -24q72 0 114.5 43.5t42.5 117.5q0 50 -34.5 86.5
t-84 61.5t-99 52t-84 71.5t-34.5 105.5q0 47 21 83t66 80q-62 57 -62 131q0 94 57.5 158.5t150.5 64.5q64 0 112.5 -34.5t48.5 -75.5q0 -21 -11.5 -32t-28.5 -11q-19 0 -31 10t-12 27q0 7 5.5 19.5t5.5 24.5q0 32 -23 49t-66 17q-74 0 -116 -44t-42 -117q0 -42 25 -75.5
t62.5 -54t81 -44.5t81 -47.5t62.5 -64t25 -91.5zM432 146q0 51 -47.5 89t-127 78t-115.5 73q-60 -60 -60 -106q0 -40 32 -74t73 -54.5t96.5 -51.5t87.5 -59q61 61 61 105z" />
    <glyph glyph-name="dieresis" unicode="&#xa8;" horiz-adv-x="440" 
d="M349 590q0 -17 -12 -29.5t-29 -12.5t-29 12.5t-12 29.5q0 18 12 30.5t29 12.5t29 -12.5t12 -30.5zM175 590q0 -17 -12 -29.5t-29 -12.5t-29 12.5t-12 29.5q0 18 12 30.5t29 12.5t29 -12.5t12 -30.5z" />
    <glyph glyph-name="copyright" unicode="&#xa9;" horiz-adv-x="842" 
d="M791 355q0 -154 -108.5 -263t-261.5 -109t-261.5 109t-108.5 263t108.5 262.5t261.5 108.5t261.5 -108.5t108.5 -262.5zM785 355q0 151 -107 258t-257 107q-151 0 -257.5 -107t-106.5 -258q0 -152 106.5 -259t257.5 -107q150 0 257 107t107 259zM567 139q0 -1 -3 -1t-3 1
q-1 6 -8 11.5t-19 5.5q-13 0 -49 -9.5t-54 -9.5q-86 0 -144 66t-58 157t57 157t142 66q15 0 46.5 -8t45.5 -8q25 0 30 14q0 1 2.5 1t2.5 -1v-120q0 -1 -2.5 -1t-2.5 1q0 45 -38 80.5t-84 35.5q-51 0 -78 -23q-52 -43 -52 -194q0 -149 52 -195q29 -22 81 -22q56 0 93 37.5
t37 95.5q0 2 3 2t3 -2v-137z" />
    <glyph glyph-name="ordfeminine" unicode="&#xaa;" horiz-adv-x="341" 
d="M323 426q-3 -11 -17 -19.5t-33 -8.5q-23 0 -38 13.5t-18 35.5q-7 -23 -31 -36t-54 -13q-42 0 -70.5 18.5t-28.5 58.5q0 84 95 94q86 8 86 22v57q0 72 -57 72q-32 0 -32 -31q0 -6 2.5 -14t2.5 -13q0 -26 -31 -26q-15 0 -22.5 10t-7.5 23q0 20 24 38.5t64 18.5
q118 0 118 -134v-156q0 -25 19 -25q17 0 25 18q0 2 2.5 0t1.5 -3zM214 464v115q-8 -5 -20 -7.5t-29 -4.5t-23 -3q-50 -10 -50 -89q0 -69 53 -69q28 0 48.5 17.5t20.5 40.5z" />
    <glyph glyph-name="guillemotleft" unicode="&#xab;" horiz-adv-x="378" 
d="M338 50q0 -3 -4.5 -3t-4.5 3q0 36 -32 74t-59 56t-50 30q-4 2 0 4q15 8 34 21t45.5 34.5t44 50t17.5 55.5q0 3 4.5 3t4.5 -3q0 -43 -26 -90t-53 -73q28 -26 53.5 -72.5t25.5 -89.5zM190 50q0 -3 -4.5 -3t-4.5 3q0 36 -32 74t-59 56t-50 30q-4 2 0 4q15 8 34 21t45.5 34.5
t44 50t17.5 55.5q0 3 4.5 3t4.5 -3q0 -42 -26 -89.5t-53 -73.5q27 -27 53 -73.5t26 -88.5z" />
    <glyph glyph-name="registered" unicode="&#xae;" horiz-adv-x="842" 
d="M791 355q0 -154 -108.5 -263t-261.5 -109t-261.5 109t-108.5 263t108.5 262.5t261.5 108.5t261.5 -108.5t108.5 -262.5zM785 355q0 151 -107 258t-257 107q-151 0 -257.5 -107t-106.5 -258q0 -152 106.5 -259t257.5 -107q150 0 257 107t107 259zM660 158q-21 -21 -57 -21
q-88 0 -88 117v37q0 37 -26.5 55.5t-70.5 18.5h-60v-209q0 -3 4 -3h68q2 0 2 -2.5t-2 -2.5h-196q-1 0 -1 2.5t1 2.5h53q4 0 4 3v409q0 2 -4 2h-53q-1 0 -1 3t1 3h185q67 0 106.5 -29.5t39.5 -74.5q0 -42 -38.5 -71.5t-95.5 -29.5q77 0 115 -30.5t38 -84.5v-55q0 -23 9.5 -38
t25.5 -15q22 0 38 18q1 0 2.5 -2t0.5 -3zM498 466q0 101 -95 101h-41q-4 0 -4 -2v-194h60q46 0 63 19.5t17 75.5z" />
    <glyph glyph-name="macron" unicode="&#xaf;" horiz-adv-x="398" 
d="M339 597h-281q-2 0 -2 6.5t2 6.5h281q1 0 1 -6.5t-1 -6.5z" />
    <glyph glyph-name="degree" unicode="&#xb0;" horiz-adv-x="282" 
d="M218 636q0 -32 -22.5 -54.5t-54.5 -22.5q-31 0 -54 22.5t-23 54.5t23 54.5t54 22.5q32 0 54.5 -22.5t22.5 -54.5zM211 636q0 29 -20.5 50t-49.5 21q-28 0 -48.5 -21t-20.5 -50t20.5 -50t48.5 -21q29 0 49.5 21t20.5 50z" />
    <glyph glyph-name="acute" unicode="&#xb4;" horiz-adv-x="352" 
d="M262 656q0 -87 -210 -137q-1 -1 -2 1q-1 4 1 4q47 11 79 39t43.5 54.5t26 47t32.5 20.5q13 0 21.5 -8.5t8.5 -20.5z" />
    <glyph glyph-name="paragraph" unicode="&#xb6;" horiz-adv-x="641" 
d="M601 0h-222q-136 0 -232 104t-96 250q0 147 96 251t232 104h222q1 0 1 -3t-1 -3h-87q-6 0 -6 -4v-689q0 -4 6 -4h87q1 0 1 -3t-1 -3zM501 10v689q0 4 -7 4h-104q-6 0 -6 -4v-689q0 -4 6 -4h104q7 0 7 4z" />
    <glyph glyph-name="periodcentered" unicode="&#xb7;" horiz-adv-x="163" 
d="M127 354q0 -20 -13 -34t-32 -14q-18 0 -31.5 14t-13.5 34q0 19 13.5 33.5t31.5 14.5q19 0 32 -14t13 -34z" />
    <glyph glyph-name="cedilla" unicode="&#xb8;" horiz-adv-x="288" 
d="M202 -154q0 -34 -18 -53t-52 -19q-27 0 -44 15.5t-17 31.5q0 10 6.5 17.5t17.5 7.5q23 0 23 -21q0 -8 -5.5 -14.5t-5.5 -10.5q0 -20 25 -20q27 0 44 14t17 37q0 12 -12.5 20.5t-27.5 14t-27.5 20.5t-12.5 38q0 41 22 70q1 1 3.5 0t2.5 -2q-12 -18 -12 -39
q0 -16 11.5 -27.5t25 -17.5t25 -22t11.5 -40z" />
    <glyph glyph-name="ordmasculine" unicode="&#xba;" horiz-adv-x="390" 
d="M350 561q0 -68 -45.5 -116.5t-109.5 -48.5t-109.5 48.5t-45.5 116.5t45.5 116.5t109.5 48.5t109.5 -48.5t45.5 -116.5zM287 561q0 111 -37 142q-17 17 -55 17t-56 -17q-37 -32 -37 -142t37 -142q20 -17 56 -17q37 0 55 17q37 31 37 142z" />
    <glyph glyph-name="guillemotright" unicode="&#xbb;" horiz-adv-x="378" 
d="M338 210q-23 -11 -50.5 -30t-59 -56.5t-31.5 -73.5q0 -3 -4.5 -3t-4.5 3q0 42 26 88.5t53 73.5q-27 26 -53 73.5t-26 89.5q0 3 4.5 3t4.5 -3q0 -36 31.5 -74t59.5 -57t50 -30q4 -2 0 -4zM190 210q-23 -11 -50.5 -30t-59 -56.5t-31.5 -73.5q0 -3 -4.5 -3t-4.5 3
q0 42 26 88.5t53 73.5q-27 26 -53 73.5t-26 89.5q0 3 4.5 3t4.5 -3q0 -36 31.5 -74t59.5 -57t50 -30q4 -2 0 -4z" />
    <glyph glyph-name="questiondown" unicode="&#xbf;" horiz-adv-x="409" 
d="M331 328q0 -20 -13.5 -34t-32.5 -14t-32 14t-13 34t13 34t32 14t32.5 -14t13.5 -34zM386 -254q0 -44 -36 -76.5t-101 -32.5q-94 0 -154.5 58t-60.5 150q0 89 52 145.5t125 56.5q48 0 71 -28v177q0 2 3 2t3 -2v-184v-2l1 -2q0 -1 -1.5 -2t-2.5 0q-9 18 -30.5 26.5
t-43.5 8.5q-40 0 -61 -18q-16 -13 -22 -46t-6 -132q0 -137 52 -180q27 -22 75 -22q35 0 45.5 11.5t10.5 42.5q0 17 -6.5 30.5t-6.5 26.5q0 17 12.5 28.5t33.5 11.5q48 0 48 -48z" />
    <glyph glyph-name="Agrave" unicode="&#xc0;" 
d="M696 0h-311q-1 0 -1 3t1 3h94q5 0 5 3l-85 235h-242l-72 -196q-5 -14 -7.5 -22t-3.5 -12.5t0 -6t3 -1.5h90q1 0 1 -3t-1 -3h-188q-1 0 -1 3t1 3h75q7 0 11 6.5t14 35.5l244 675q1 2 3.5 2t3.5 -2l273 -714q3 -3 8 -3h85q2 0 2 -3t-2 -3zM397 250l-119 329l-120 -329h239z
M350 779q0 -1 -1 -5q-209 50 -209 137q0 12 8.5 20.5t21.5 8.5q18 0 32.5 -20.5t26 -47t43 -54.5t78.5 -39z" />
    <glyph glyph-name="Aacute" unicode="&#xc1;" 
d="M696 0h-311q-1 0 -1 3t1 3h94q5 0 5 3l-85 235h-242l-72 -196q-5 -14 -7.5 -22t-3.5 -12.5t0 -6t3 -1.5h90q1 0 1 -3t-1 -3h-188q-1 0 -1 3t1 3h75q7 0 11 6.5t14 35.5l244 675q1 2 3.5 2t3.5 -2l273 -714q3 -3 8 -3h85q2 0 2 -3t-2 -3zM397 250l-119 329l-120 -329h239z
M524 911q0 -87 -210 -137q-1 -1 -2 1q-1 4 1 4q47 11 79 39t43.5 54.5t26 47t32.5 20.5q13 0 21.5 -8.5t8.5 -20.5z" />
    <glyph glyph-name="Acircumflex" unicode="&#xc2;" 
d="M696 0h-311q-1 0 -1 3t1 3h94q5 0 5 3l-85 235h-242l-72 -196q-5 -14 -7.5 -22t-3.5 -12.5t0 -6t3 -1.5h90q1 0 1 -3t-1 -3h-188q-1 0 -1 3t1 3h75q7 0 11 6.5t14 35.5l244 675q1 2 3.5 2t3.5 -2l273 -714q3 -3 8 -3h85q2 0 2 -3t-2 -3zM397 250l-119 329l-120 -329h239z
M453 788q1 -2 -1 -3.5t-3 -0.5l-124 85l-113 -85q-2 -1 -3 1t0 3q83 97 119 153q2 1 3 0q37 -56 122 -153z" />
    <glyph glyph-name="Atilde" unicode="&#xc3;" 
d="M696 0h-311q-1 0 -1 3t1 3h94q5 0 5 3l-85 235h-242l-72 -196q-5 -14 -7.5 -22t-3.5 -12.5t0 -6t3 -1.5h90q1 0 1 -3t-1 -3h-188q-1 0 -1 3t1 3h75q7 0 11 6.5t14 35.5l244 675q1 2 3.5 2t3.5 -2l273 -714q3 -3 8 -3h85q2 0 2 -3t-2 -3zM397 250l-119 329l-120 -329h239z
M498 926q0 -48 -30.5 -78.5t-76.5 -30.5q-37 0 -90 30t-72 30q-28 0 -43.5 -19.5t-15.5 -51.5q0 -2 -3.5 -2t-3.5 2q0 47 30.5 77t76.5 30q37 0 89.5 -29.5t72.5 -29.5q29 0 44.5 19.5t15.5 52.5q0 2 3 2t3 -2z" />
    <glyph glyph-name="Adieresis" unicode="&#xc4;" 
d="M696 0h-311q-1 0 -1 3t1 3h94q5 0 5 3l-85 235h-242l-72 -196q-5 -14 -7.5 -22t-3.5 -12.5t0 -6t3 -1.5h90q1 0 1 -3t-1 -3h-188q-1 0 -1 3t1 3h75q7 0 11 6.5t14 35.5l244 675q1 2 3.5 2t3.5 -2l273 -714q3 -3 8 -3h85q2 0 2 -3t-2 -3zM397 250l-119 329l-120 -329h239z
M459 845q0 -17 -12 -29.5t-29 -12.5t-29 12.5t-12 29.5q0 18 12 30.5t29 12.5t29 -12.5t12 -30.5zM285 845q0 -17 -12 -29.5t-29 -12.5t-29 12.5t-12 29.5q0 18 12 30.5t29 12.5t29 -12.5t12 -30.5z" />
    <glyph glyph-name="Aring" unicode="&#xc5;" 
d="M696 0h-311q-1 0 -1 3t1 3h94q5 0 5 3l-85 235h-242l-72 -196q-5 -14 -7.5 -22t-3.5 -12.5t0 -6t3 -1.5h90q1 0 1 -3t-1 -3h-188q-1 0 -1 3t1 3h75q7 0 11 6.5t14 35.5l242 670q-29 3 -50 25.5t-21 51.5q0 32 22.5 54.5t54.5 22.5q31 0 53.5 -22.5t22.5 -54.5
q0 -30 -20.5 -52.5t-50.5 -24.5l271 -709q3 -3 8 -3h85q2 0 2 -3t-2 -3zM396 795q0 29 -20.5 50t-48.5 21q-29 0 -49.5 -21t-20.5 -50t20.5 -50t49.5 -21q28 0 48.5 21t20.5 50zM397 250l-119 329l-120 -329h239z" />
    <glyph glyph-name="AE" unicode="&#xc6;" horiz-adv-x="928" 
d="M903 3q0 -3 -3 -3h-566q-2 0 -2 3t2 3h89q7 0 7 4v283h-229l-136 -245q-23 -41 -17 -42h90q2 0 2 -2t-2 -4h-188q-2 2 -2 4t2 2h75q7 0 11.5 6t20.5 36l367 655h-90q-2 0 -2 3t2 3h513q3 0 3 -3v-180q0 -2 -3 -2t-3 2q0 77 -42 127t-131 50h-125q-7 0 -7 -4v-332h51
q60 0 93 30.5t33 83.5q0 1 2.5 1t2.5 -1v-234q0 -2 -2.5 -2t-2.5 2q0 52 -33 83t-93 31h-51v-351q0 -4 7 -4h128q116 0 170 55.5t54 141.5q0 1 2.5 1t2.5 -1v-200zM430 299v400l-225 -400h225z" />
    <glyph glyph-name="Ccedilla" unicode="&#xc7;" horiz-adv-x="655" 
d="M606 -15q0 -1 -2.5 -1t-3.5 1q-2 11 -14 20.5t-31 9.5q-21 0 -88 -17.5t-105 -13.5q-8 -18 -8 -33q0 -16 11.5 -27t25.5 -17t25.5 -21.5t11.5 -40.5q0 -34 -18.5 -53t-51.5 -19q-28 0 -45 15.5t-17 31.5q0 10 6.5 17.5t17.5 7.5q23 0 23 -21q0 -8 -5.5 -14.5t-5.5 -10.5
q0 -20 26 -20t43 14t17 37q0 12 -12.5 20.5t-27.5 14t-27.5 20.5t-12.5 38q0 29 17 61q-131 12 -217.5 119.5t-86.5 250.5q0 152 93.5 262t234.5 110q25 0 77 -13.5t75 -13.5q21 0 35 7.5t16 16.5q0 1 2.5 1t2.5 -1v-201q0 -2 -2.5 -2t-2.5 2q0 74 -64 136t-139 62
q-85 0 -128 -39q-85 -76 -85 -327t85 -327q44 -39 133 -39q93 0 154.5 64.5t61.5 162.5q0 1 3 1t3 -1v-230z" />
    <glyph glyph-name="Egrave" unicode="&#xc8;" horiz-adv-x="634" 
d="M609 3q0 -3 -3 -3h-566q-2 0 -2 3t2 3h88q6 0 6 4v689q0 4 -6 4h-88q-2 0 -2 3t2 3h513q3 0 3 -3v-180q0 -2 -3 -2t-3 2q0 77 -42.5 127t-131.5 50h-126q-6 0 -6 -4v-332h51q60 0 93 30.5t33 83.5q0 1 3 1t3 -1v-234q0 -2 -3 -2t-3 2q0 52 -33 83t-93 31h-51v-351
q0 -4 6 -4h129q117 0 170.5 55.5t53.5 141.5q0 1 3 1t3 -1v-200zM425 779q0 -1 -1 -5q-209 50 -209 137q0 12 8.5 20.5t21.5 8.5q18 0 32.5 -20.5t26 -47t43 -54.5t78.5 -39z" />
    <glyph glyph-name="Eacute" unicode="&#xc9;" horiz-adv-x="634" 
d="M609 3q0 -3 -3 -3h-566q-2 0 -2 3t2 3h88q6 0 6 4v689q0 4 -6 4h-88q-2 0 -2 3t2 3h513q3 0 3 -3v-180q0 -2 -3 -2t-3 2q0 77 -42.5 127t-131.5 50h-126q-6 0 -6 -4v-332h51q60 0 93 30.5t33 83.5q0 1 3 1t3 -1v-234q0 -2 -3 -2t-3 2q0 52 -33 83t-93 31h-51v-351
q0 -4 6 -4h129q117 0 170.5 55.5t53.5 141.5q0 1 3 1t3 -1v-200zM505 911q0 -87 -210 -137q-1 -1 -2 1q-1 4 1 4q47 11 79 39t43.5 54.5t26 47t32.5 20.5q13 0 21.5 -8.5t8.5 -20.5z" />
    <glyph glyph-name="Ecircumflex" unicode="&#xca;" horiz-adv-x="634" 
d="M609 3q0 -3 -3 -3h-566q-2 0 -2 3t2 3h88q6 0 6 4v689q0 4 -6 4h-88q-2 0 -2 3t2 3h513q3 0 3 -3v-180q0 -2 -3 -2t-3 2q0 77 -42.5 127t-131.5 50h-126q-6 0 -6 -4v-332h51q60 0 93 30.5t33 83.5q0 1 3 1t3 -1v-234q0 -2 -3 -2t-3 2q0 52 -33 83t-93 31h-51v-351
q0 -4 6 -4h129q117 0 170.5 55.5t53.5 141.5q0 1 3 1t3 -1v-200zM462 788q1 -2 -0.5 -3.5t-3.5 -0.5l-124 85l-113 -85q-2 -1 -3 1t0 3q83 97 119 153q1 1 3 0q37 -56 122 -153z" />
    <glyph glyph-name="Edieresis" unicode="&#xcb;" horiz-adv-x="634" 
d="M609 3q0 -3 -3 -3h-566q-2 0 -2 3t2 3h88q6 0 6 4v689q0 4 -6 4h-88q-2 0 -2 3t2 3h513q3 0 3 -3v-180q0 -2 -3 -2t-3 2q0 77 -42.5 127t-131.5 50h-126q-6 0 -6 -4v-332h51q60 0 93 30.5t33 83.5q0 1 3 1t3 -1v-234q0 -2 -3 -2t-3 2q0 52 -33 83t-93 31h-51v-351
q0 -4 6 -4h129q117 0 170.5 55.5t53.5 141.5q0 1 3 1t3 -1v-200zM471 845q0 -17 -12 -29.5t-29 -12.5t-29 12.5t-12 29.5q0 18 12 30.5t29 12.5t29 -12.5t12 -30.5zM297 845q0 -17 -12 -29.5t-29 -12.5t-29 12.5t-12 29.5q0 18 12 30.5t29 12.5t29 -12.5t12 -30.5z" />
    <glyph glyph-name="Igrave" unicode="&#xcc;" horiz-adv-x="378" 
d="M339 0h-299q-2 0 -2 3t2 3h88q6 0 6 4v689q0 4 -6 4h-88q-2 0 -2 3t2 3h299q1 0 1 -3t-1 -3h-89q-7 0 -7 -4v-689q0 -4 7 -4h89q1 0 1 -3t-1 -3zM291 779q0 -1 -1 -5q-209 50 -209 137q0 12 8.5 20.5t21.5 8.5q18 0 32.5 -20.5t26 -47t43 -54.5t78.5 -39z" />
    <glyph glyph-name="Iacute" unicode="&#xcd;" horiz-adv-x="378" 
d="M339 0h-299q-2 0 -2 3t2 3h88q6 0 6 4v689q0 4 -6 4h-88q-2 0 -2 3t2 3h299q1 0 1 -3t-1 -3h-89q-7 0 -7 -4v-689q0 -4 7 -4h89q1 0 1 -3t-1 -3zM341 911q0 -87 -210 -137q-1 -1 -2 1q-1 4 1 4q47 11 79 39t43.5 54.5t26 47t32.5 20.5q13 0 21.5 -8.5t8.5 -20.5z" />
    <glyph glyph-name="Icircumflex" unicode="&#xce;" horiz-adv-x="378" 
d="M339 0h-299q-2 0 -2 3t2 3h88q6 0 6 4v689q0 4 -6 4h-88q-2 0 -2 3t2 3h299q1 0 1 -3t-1 -3h-89q-7 0 -7 -4v-689q0 -4 7 -4h89q1 0 1 -3t-1 -3zM310 788q1 -2 -0.5 -3.5t-3.5 -0.5l-124 85l-113 -85q-2 -1 -3 1t0 3q83 97 119 153q1 1 3 0q37 -56 122 -153z" />
    <glyph glyph-name="Idieresis" unicode="&#xcf;" horiz-adv-x="378" 
d="M339 0h-299q-2 0 -2 3t2 3h88q6 0 6 4v689q0 4 -6 4h-88q-2 0 -2 3t2 3h299q1 0 1 -3t-1 -3h-89q-7 0 -7 -4v-689q0 -4 7 -4h89q1 0 1 -3t-1 -3zM319 845q0 -17 -12 -29.5t-29 -12.5t-29 12.5t-12 29.5q0 18 12 30.5t29 12.5t29 -12.5t12 -30.5zM145 845q0 -17 -12 -29.5
t-29 -12.5t-29 12.5t-12 29.5q0 18 12 30.5t29 12.5t29 -12.5t12 -30.5z" />
    <glyph glyph-name="Ntilde" unicode="&#xd1;" horiz-adv-x="738" 
d="M710 703h-89q-6 0 -6 -4v-712q0 -1 -1.5 -2t-3.5 -0.5t-3 2.5l-470 709v-686q0 -4 6 -4h89q2 0 2 -3t-2 -3h-197q-1 0 -1 3t1 3h89q5 0 5 4v689q0 4 -5 4h-89q-1 0 -1 3t1 3h211q10 0 22 -18l340 -513v521q0 4 -6 4h-89q-1 0 -1 3t1 3h197q1 0 1 -3t-1 -3zM554 926
q0 -48 -30.5 -78.5t-76.5 -30.5q-37 0 -90 30t-72 30q-28 0 -43.5 -19.5t-15.5 -51.5q0 -2 -3.5 -2t-3.5 2q0 47 30.5 77t76.5 30q37 0 89.5 -29.5t72.5 -29.5q29 0 44.5 19.5t15.5 52.5q0 2 3 2t3 -2z" />
    <glyph glyph-name="Ograve" unicode="&#xd2;" horiz-adv-x="759" 
d="M708 354q0 -154 -96.5 -262.5t-232.5 -108.5t-232 108.5t-96 262.5q0 152 93.5 262t234.5 110q137 0 233 -109t96 -263zM592 354q0 251 -85 327q-44 39 -128 39t-128 -39q-84 -76 -84 -327q0 -143 20.5 -215.5t63.5 -111.5q46 -39 128 -39t128 39q44 39 64.5 111
t20.5 216zM417 779q0 -1 -1 -5q-209 50 -209 137q0 12 8.5 20.5t21.5 8.5q18 0 32.5 -20.5t26 -47t43 -54.5t78.5 -39z" />
    <glyph glyph-name="Oacute" unicode="&#xd3;" horiz-adv-x="759" 
d="M708 354q0 -154 -96.5 -262.5t-232.5 -108.5t-232 108.5t-96 262.5q0 152 93.5 262t234.5 110q137 0 233 -109t96 -263zM592 354q0 251 -85 327q-44 39 -128 39t-128 -39q-84 -76 -84 -327q0 -143 20.5 -215.5t63.5 -111.5q46 -39 128 -39t128 39q44 39 64.5 111
t20.5 216zM530 911q0 -87 -210 -137q-1 -1 -2 1q-1 4 1 4q47 11 79 39t43.5 54.5t26 47t32.5 20.5q13 0 21.5 -8.5t8.5 -20.5z" />
    <glyph glyph-name="Ocircumflex" unicode="&#xd4;" horiz-adv-x="759" 
d="M708 354q0 -154 -96.5 -262.5t-232.5 -108.5t-232 108.5t-96 262.5q0 152 93.5 262t234.5 110q137 0 233 -109t96 -263zM592 354q0 251 -85 327q-44 39 -128 39t-128 -39q-84 -76 -84 -327q0 -143 20.5 -215.5t63.5 -111.5q46 -39 128 -39t128 39q44 39 64.5 111
t20.5 216zM507 788q1 -2 -1 -3.5t-3 -0.5l-124 85l-113 -85q-2 -1 -3 1t0 3q83 97 119 153q2 1 3 0q37 -56 122 -153z" />
    <glyph glyph-name="Otilde" unicode="&#xd5;" horiz-adv-x="793" 
d="M708 354q0 -154 -96.5 -262.5t-232.5 -108.5t-232 108.5t-96 262.5q0 152 93.5 262t234.5 110q137 0 233 -109t96 -263zM592 354q0 251 -85 327q-44 39 -128 39t-128 -39q-84 -76 -84 -327q0 -143 20.5 -215.5t63.5 -111.5q46 -39 128 -39t128 39q44 39 64.5 111
t20.5 216zM550 926q0 -48 -30.5 -78.5t-76.5 -30.5q-37 0 -90 30t-72 30q-28 0 -43.5 -19.5t-15.5 -51.5q0 -2 -3.5 -2t-3.5 2q0 47 30.5 77t76.5 30q37 0 89.5 -29.5t72.5 -29.5q29 0 44.5 19.5t15.5 52.5q0 2 3 2t3 -2z" />
    <glyph glyph-name="Odieresis" unicode="&#xd6;" horiz-adv-x="759" 
d="M708 354q0 -154 -96.5 -262.5t-232.5 -108.5t-232 108.5t-96 262.5q0 152 93.5 262t234.5 110q137 0 233 -109t96 -263zM592 354q0 251 -85 327q-44 39 -128 39t-128 -39q-84 -76 -84 -327q0 -143 20.5 -215.5t63.5 -111.5q46 -39 128 -39t128 39q44 39 64.5 111
t20.5 216zM505 845q0 -17 -12 -29.5t-29 -12.5t-29 12.5t-12 29.5q0 18 12 30.5t29 12.5t29 -12.5t12 -30.5zM331 845q0 -17 -12 -29.5t-29 -12.5t-29 12.5t-12 29.5q0 18 12 30.5t29 12.5t29 -12.5t12 -30.5z" />
    <glyph glyph-name="Oslash" unicode="&#xd8;" horiz-adv-x="759" 
d="M708 354q0 -154 -96.5 -262.5t-232.5 -108.5q-100 0 -181 61l-39 -68q-1 -2 -5 2l-1 2l40 68q-66 51 -104 132t-38 174q0 152 93.5 262t234.5 110q101 0 183 -62l38 65q1 2 5 -2q1 -1 1 -2q-39 -64 -40 -66q66 -51 104 -131.5t38 -173.5zM544 634q-18 30 -37 47
q-44 39 -128 39t-128 -39q-84 -76 -84 -327q0 -197 44 -277zM592 354q0 183 -45 273q-332 -556 -332 -557q14 -23 36 -43q46 -39 128 -39t128 39q44 39 64.5 111t20.5 216z" />
    <glyph glyph-name="Ugrave" unicode="&#xd9;" horiz-adv-x="723" 
d="M713 703h-89q-6 0 -6 -4v-489q0 -107 -60 -167t-183 -60q-118 0 -189 57.5t-71 165.5v493q0 4 -6 4h-89q-2 0 -2 3t2 3h300q2 0 2 -3t-2 -3h-89q-6 0 -6 -4v-493q0 -209 175 -209q106 0 158.5 57t52.5 156v489q0 4 -6 4h-88q-1 0 -1 3t1 3h196q1 0 1 -3t-1 -3zM473 779
q0 -1 -1 -5q-209 50 -209 137q0 12 8.5 20.5t21.5 8.5q18 0 32.5 -20.5t26 -47t43 -54.5t78.5 -39z" />
    <glyph glyph-name="Uacute" unicode="&#xda;" horiz-adv-x="723" 
d="M713 703h-89q-6 0 -6 -4v-489q0 -107 -60 -167t-183 -60q-118 0 -189 57.5t-71 165.5v493q0 4 -6 4h-89q-2 0 -2 3t2 3h300q2 0 2 -3t-2 -3h-89q-6 0 -6 -4v-493q0 -209 175 -209q106 0 158.5 57t52.5 156v489q0 4 -6 4h-88q-1 0 -1 3t1 3h196q1 0 1 -3t-1 -3zM541 911
q0 -87 -210 -137q-1 -1 -2 1q-1 4 1 4q47 11 79 39t43.5 54.5t26 47t32.5 20.5q13 0 21.5 -8.5t8.5 -20.5z" />
    <glyph glyph-name="Ucircumflex" unicode="&#xdb;" horiz-adv-x="723" 
d="M713 703h-89q-6 0 -6 -4v-489q0 -107 -60 -167t-183 -60q-118 0 -189 57.5t-71 165.5v493q0 4 -6 4h-89q-2 0 -2 3t2 3h300q2 0 2 -3t-2 -3h-89q-6 0 -6 -4v-493q0 -209 175 -209q106 0 158.5 57t52.5 156v489q0 4 -6 4h-88q-1 0 -1 3t1 3h196q1 0 1 -3t-1 -3zM517 788
q1 -2 -1 -3.5t-3 -0.5l-124 85l-113 -85q-2 -1 -3 1t0 3q83 97 119 153q2 1 3 0q37 -56 122 -153z" />
    <glyph glyph-name="Udieresis" unicode="&#xdc;" horiz-adv-x="723" 
d="M713 703h-89q-6 0 -6 -4v-489q0 -107 -60 -167t-183 -60q-118 0 -189 57.5t-71 165.5v493q0 4 -6 4h-89q-2 0 -2 3t2 3h300q2 0 2 -3t-2 -3h-89q-6 0 -6 -4v-493q0 -209 175 -209q106 0 158.5 57t52.5 156v489q0 4 -6 4h-88q-1 0 -1 3t1 3h196q1 0 1 -3t-1 -3zM527 845
q0 -17 -12 -29.5t-29 -12.5t-29 12.5t-12 29.5q0 18 12 30.5t29 12.5t29 -12.5t12 -30.5zM353 845q0 -17 -12 -29.5t-29 -12.5t-29 12.5t-12 29.5q0 18 12 30.5t29 12.5t29 -12.5t12 -30.5z" />
    <glyph glyph-name="germandbls" unicode="&#xdf;" horiz-adv-x="558" 
d="M504 193q0 -98 -46.5 -150t-103.5 -52q-47 0 -77 25t-30 61q0 17 9 27t23 10q15 0 24.5 -8t9.5 -21q0 -6 -4.5 -16t-4.5 -20q0 -25 14 -38.5t36 -13.5q36 0 54 37t18 149q0 121 -29.5 172t-91.5 51q-18 0 -37 -11q-3 -2 -4 2q0 2 1 3q61 37 83 76.5t22 118.5
q0 75 -22.5 108.5t-74.5 33.5q-40 0 -66 -28.5t-26 -92.5v-607q0 -4 7 -4h54q2 0 2 -2.5t-2 -2.5h-202q-2 0 -2 2.5t2 2.5h55q6 0 6 4v440q0 152 46.5 223t125.5 71q74 0 121 -40t47 -111q0 -60 -41 -107t-105 -72q9 2 34 2q81 0 128 -69t47 -153z" />
    <glyph glyph-name="agrave" unicode="&#xe0;" horiz-adv-x="438" 
d="M429 30q-4 -15 -22 -26.5t-44 -11.5q-31 0 -50 18t-25 48q-9 -31 -41.5 -48.5t-74.5 -17.5q-57 0 -95 24.5t-38 79.5q0 37 13.5 63t36.5 38.5t40.5 18t37.5 7.5q4 0 11 1q106 9 106 29v76q0 55 -22.5 77.5t-54.5 22.5q-44 0 -44 -43q0 -9 3.5 -19.5t3.5 -17.5
q0 -14 -10.5 -24t-31.5 -10q-20 0 -30 12.5t-10 30.5q0 29 32.5 53t86.5 24q157 0 157 -181v-213q0 -33 26 -33q12 0 21.5 8t13.5 17q0 2 2.5 0t1.5 -3zM284 76v162q-10 -7 -27 -10.5t-40.5 -6t-30.5 -3.5q-69 -14 -69 -122q0 -95 73 -95q37 0 65.5 23t28.5 52zM325 524
q0 -1 -1 -5q-209 50 -209 137q0 12 8.5 20.5t21.5 8.5q18 0 32.5 -20.5t26 -47t43 -54.5t78.5 -39z" />
    <glyph glyph-name="aacute" unicode="&#xe1;" horiz-adv-x="438" 
d="M429 30q-4 -15 -22 -26.5t-44 -11.5q-31 0 -50 18t-25 48q-9 -31 -41.5 -48.5t-74.5 -17.5q-57 0 -95 24.5t-38 79.5q0 37 13.5 63t36.5 38.5t40.5 18t37.5 7.5q4 0 11 1q106 9 106 29v76q0 55 -22.5 77.5t-54.5 22.5q-44 0 -44 -43q0 -9 3.5 -19.5t3.5 -17.5
q0 -14 -10.5 -24t-31.5 -10q-20 0 -30 12.5t-10 30.5q0 29 32.5 53t86.5 24q157 0 157 -181v-213q0 -33 26 -33q12 0 21.5 8t13.5 17q0 2 2.5 0t1.5 -3zM284 76v162q-10 -7 -27 -10.5t-40.5 -6t-30.5 -3.5q-69 -14 -69 -122q0 -95 73 -95q37 0 65.5 23t28.5 52zM358 656
q0 -87 -210 -137q-1 -1 -2 1q-1 4 1 4q47 11 79 39t43.5 54.5t26 47t32.5 20.5q13 0 21.5 -8.5t8.5 -20.5z" />
    <glyph glyph-name="acircumflex" unicode="&#xe2;" horiz-adv-x="438" 
d="M429 30q-4 -15 -22 -26.5t-44 -11.5q-31 0 -50 18t-25 48q-9 -31 -41.5 -48.5t-74.5 -17.5q-57 0 -95 24.5t-38 79.5q0 37 13.5 63t36.5 38.5t40.5 18t37.5 7.5q4 0 11 1q106 9 106 29v76q0 55 -22.5 77.5t-54.5 22.5q-44 0 -44 -43q0 -9 3.5 -19.5t3.5 -17.5
q0 -14 -10.5 -24t-31.5 -10q-20 0 -30 12.5t-10 30.5q0 29 32.5 53t86.5 24q157 0 157 -181v-213q0 -33 26 -33q12 0 21.5 8t13.5 17q0 2 2.5 0t1.5 -3zM284 76v162q-10 -7 -27 -10.5t-40.5 -6t-30.5 -3.5q-69 -14 -69 -122q0 -95 73 -95q37 0 65.5 23t28.5 52zM347 533
q1 -1 -1 -3t-3 -1l-124 85l-113 -85q-2 -1 -3 1t0 3q83 97 119 153q2 2 3 0q37 -56 122 -153z" />
    <glyph glyph-name="atilde" unicode="&#xe3;" horiz-adv-x="438" 
d="M429 30q-4 -15 -22 -26.5t-44 -11.5q-31 0 -50 18t-25 48q-9 -31 -41.5 -48.5t-74.5 -17.5q-57 0 -95 24.5t-38 79.5q0 37 13.5 63t36.5 38.5t40.5 18t37.5 7.5q4 0 11 1q106 9 106 29v76q0 55 -22.5 77.5t-54.5 22.5q-44 0 -44 -43q0 -9 3.5 -19.5t3.5 -17.5
q0 -14 -10.5 -24t-31.5 -10q-20 0 -30 12.5t-10 30.5q0 29 32.5 53t86.5 24q157 0 157 -181v-213q0 -33 26 -33q12 0 21.5 8t13.5 17q0 2 2.5 0t1.5 -3zM284 76v162q-10 -7 -27 -10.5t-40.5 -6t-30.5 -3.5q-69 -14 -69 -122q0 -95 73 -95q37 0 65.5 23t28.5 52zM403 671
q0 -48 -30.5 -78.5t-76.5 -30.5q-37 0 -90 30t-72 30q-28 0 -43.5 -19.5t-15.5 -51.5q0 -2 -3.5 -2t-3.5 2q0 47 30.5 77t76.5 30q37 0 89.5 -29.5t72.5 -29.5q29 0 44.5 19.5t15.5 52.5q0 1 3 1t3 -1z" />
    <glyph glyph-name="adieresis" unicode="&#xe4;" horiz-adv-x="438" 
d="M429 30q-4 -15 -22 -26.5t-44 -11.5q-31 0 -50 18t-25 48q-9 -31 -41.5 -48.5t-74.5 -17.5q-57 0 -95 24.5t-38 79.5q0 37 13.5 63t36.5 38.5t40.5 18t37.5 7.5q4 0 11 1q106 9 106 29v76q0 55 -22.5 77.5t-54.5 22.5q-44 0 -44 -43q0 -9 3.5 -19.5t3.5 -17.5
q0 -14 -10.5 -24t-31.5 -10q-20 0 -30 12.5t-10 30.5q0 29 32.5 53t86.5 24q157 0 157 -181v-213q0 -33 26 -33q12 0 21.5 8t13.5 17q0 2 2.5 0t1.5 -3zM284 76v162q-10 -7 -27 -10.5t-40.5 -6t-30.5 -3.5q-69 -14 -69 -122q0 -95 73 -95q37 0 65.5 23t28.5 52zM359 590
q0 -17 -12 -29.5t-29 -12.5t-29 12.5t-12 29.5q0 18 12 30.5t29 12.5t29 -12.5t12 -30.5zM185 590q0 -17 -12 -29.5t-29 -12.5t-29 12.5t-12 29.5q0 18 12 30.5t29 12.5t29 -12.5t12 -30.5z" />
    <glyph glyph-name="aring" unicode="&#xe5;" horiz-adv-x="438" 
d="M429 30q-4 -15 -22 -26.5t-44 -11.5q-31 0 -50 18t-25 48q-9 -31 -41.5 -48.5t-74.5 -17.5q-57 0 -95 24.5t-38 79.5q0 37 13.5 63t36.5 38.5t40.5 18t37.5 7.5q4 0 11 1q106 9 106 29v76q0 55 -22.5 77.5t-54.5 22.5q-44 0 -44 -43q0 -9 3.5 -19.5t3.5 -17.5
q0 -14 -10.5 -24t-31.5 -10q-20 0 -30 12.5t-10 30.5q0 29 32.5 53t86.5 24q157 0 157 -181v-213q0 -33 26 -33q12 0 21.5 8t13.5 17q0 2 2.5 0t1.5 -3zM284 76v162q-10 -7 -27 -10.5t-40.5 -6t-30.5 -3.5q-69 -14 -69 -122q0 -95 73 -95q37 0 65.5 23t28.5 52zM300 608
q0 -32 -22.5 -54.5t-54.5 -22.5q-31 0 -54 22.5t-23 54.5t23 54.5t54 22.5q32 0 54.5 -22.5t22.5 -54.5zM293 608q0 29 -20.5 50t-49.5 21q-28 0 -48.5 -21t-20.5 -50t20.5 -50t48.5 -21q29 0 49.5 21t20.5 50z" />
    <glyph glyph-name="ae" unicode="&#xe6;" horiz-adv-x="689" 
d="M655 241q0 -3 -3 -3h-289v-24q0 -89 9 -130t33 -63q28 -23 74 -23q101 0 161 92q2 1 4 -3q-62 -95 -165 -95q-60 0 -111 24.5t-77 71.5q-2 -38 -38 -67t-82 -29q-56 0 -94 25t-38 80q0 37 13.5 63t36 38.5t40.5 18t37 7.5q4 0 11 1q106 9 106 29v76q0 100 -77 100
q-44 0 -44 -43q0 -9 4 -19.5t4 -17.5q0 -14 -11 -24t-32 -10q-20 0 -29.5 12.5t-9.5 30.5q0 29 32 53t86 24q105 0 132 -68q48 68 141 68q58 0 100 -34t59 -76.5t17 -84.5zM574 245q-3 129 -35 162q-22 23 -60 23q-46 0 -74 -23q-39 -35 -42 -162h211zM283 88v151
q-10 -7 -26.5 -10.5t-40.5 -6t-31 -3.5q-68 -14 -68 -122q0 -95 72 -95q33 0 63.5 27.5t30.5 58.5z" />
    <glyph glyph-name="ccedilla" unicode="&#xe7;" horiz-adv-x="432" 
d="M413 85q-62 -94 -169 -94q-12 -17 -12 -38q0 -16 11.5 -27.5t26 -17.5t26 -22t11.5 -40q0 -34 -18.5 -53t-51.5 -19q-28 0 -45.5 15.5t-17.5 31.5q0 10 6.5 17.5t17.5 7.5q23 0 23 -21q0 -8 -5.5 -14.5t-5.5 -10.5q0 -20 27 -20q26 0 42.5 14t16.5 37q0 12 -12 20.5
t-27 14t-27 20.5t-12 38q0 38 20 67q-83 5 -140 69.5t-57 152.5q0 92 61 157t147 65q64 0 98 -28t34 -66q0 -42 -41 -42q-18 0 -28.5 10t-10.5 25q0 11 5.5 22.5t5.5 26.5q0 26 -13.5 36t-49.5 10q-51 0 -77 -23t-38 -65.5t-12 -127.5q0 -86 12 -128.5t38 -65.5
q27 -23 77 -23q102 0 161 93q2 0 3 -4z" />
    <glyph glyph-name="egrave" unicode="&#xe8;" horiz-adv-x="452" 
d="M418 240q0 -3 -3 -3h-289q-1 -8 -1 -25q0 -88 9.5 -129.5t33.5 -63.5q28 -23 74 -23q102 0 161 93q1 1 3 -0.5t1 -2.5q-62 -95 -165 -95q-86 0 -143.5 64.5t-57.5 156.5q0 93 57.5 158t143.5 65q44 0 79.5 -19.5t55.5 -50.5t30.5 -63t10.5 -62zM337 243q-3 130 -35 163
q-22 23 -60 23q-47 0 -74 -23q-39 -35 -42 -163h211zM326 524q0 -1 -1 -5q-209 50 -209 137q0 12 8.5 20.5t21.5 8.5q18 0 32.5 -20.5t26 -47t43 -54.5t78.5 -39z" />
    <glyph glyph-name="eacute" unicode="&#xe9;" horiz-adv-x="452" 
d="M418 240q0 -3 -3 -3h-289q-1 -8 -1 -25q0 -88 9.5 -129.5t33.5 -63.5q28 -23 74 -23q102 0 161 93q1 1 3 -0.5t1 -2.5q-62 -95 -165 -95q-86 0 -143.5 64.5t-57.5 156.5q0 93 57.5 158t143.5 65q44 0 79.5 -19.5t55.5 -50.5t30.5 -63t10.5 -62zM337 243q-3 130 -35 163
q-22 23 -60 23q-47 0 -74 -23q-39 -35 -42 -163h211zM390 656q0 -87 -210 -137q-1 -1 -2 1q-1 4 1 4q47 11 79 39t43.5 54.5t26 47t32.5 20.5q13 0 21.5 -8.5t8.5 -20.5z" />
    <glyph glyph-name="ecircumflex" unicode="&#xea;" horiz-adv-x="452" 
d="M418 240q0 -3 -3 -3h-289q-1 -8 -1 -25q0 -88 9.5 -129.5t33.5 -63.5q28 -23 74 -23q102 0 161 93q1 1 3 -0.5t1 -2.5q-62 -95 -165 -95q-86 0 -143.5 64.5t-57.5 156.5q0 93 57.5 158t143.5 65q44 0 79.5 -19.5t55.5 -50.5t30.5 -63t10.5 -62zM337 243q-3 130 -35 163
q-22 23 -60 23q-47 0 -74 -23q-39 -35 -42 -163h211zM372 533q1 -1 -0.5 -3t-3.5 -1l-124 85l-113 -85q-2 -1 -3 1t0 3q83 97 119 153q1 2 3 0q37 -56 122 -153z" />
    <glyph glyph-name="edieresis" unicode="&#xeb;" horiz-adv-x="452" 
d="M418 240q0 -3 -3 -3h-289q-1 -8 -1 -25q0 -88 9.5 -129.5t33.5 -63.5q28 -23 74 -23q102 0 161 93q1 1 3 -0.5t1 -2.5q-62 -95 -165 -95q-86 0 -143.5 64.5t-57.5 156.5q0 93 57.5 158t143.5 65q44 0 79.5 -19.5t55.5 -50.5t30.5 -63t10.5 -62zM337 243q-3 130 -35 163
q-22 23 -60 23q-47 0 -74 -23q-39 -35 -42 -163h211zM373 590q0 -17 -12 -29.5t-29 -12.5t-29 12.5t-12 29.5q0 18 12 30.5t29 12.5t29 -12.5t12 -30.5zM199 590q0 -17 -12 -29.5t-29 -12.5t-29 12.5t-12 29.5q0 18 12 30.5t29 12.5t29 -12.5t12 -30.5z" />
    <glyph glyph-name="igrave" unicode="&#xec;" horiz-adv-x="253" 
d="M234 0h-203q-1 0 -1 3t1 3h55q6 0 6 4v406q0 4 -6 4h-55q-1 0 -1 3t1 3h139q2 0 2 -3v-413q0 -4 7 -4h55q2 0 2 -3t-2 -3zM208 524q0 -1 -1 -5q-209 50 -209 137q0 12 8.5 20.5t21.5 8.5q18 0 32.5 -20.5t26 -47t43 -54.5t78.5 -39z" />
    <glyph glyph-name="iacute" unicode="&#xed;" horiz-adv-x="253" 
d="M234 0h-203q-1 0 -1 3t1 3h55q6 0 6 4v406q0 4 -6 4h-55q-1 0 -1 3t1 3h139q2 0 2 -3v-413q0 -4 7 -4h55q2 0 2 -3t-2 -3zM289 656q0 -87 -210 -137q-1 -1 -2 1q-1 4 1 4q47 11 79 39t43.5 54.5t26 47t32.5 20.5q13 0 21.5 -8.5t8.5 -20.5z" />
    <glyph glyph-name="icircumflex" unicode="&#xee;" horiz-adv-x="253" 
d="M234 0h-203q-1 0 -1 3t1 3h55q6 0 6 4v406q0 4 -6 4h-55q-1 0 -1 3t1 3h139q2 0 2 -3v-413q0 -4 7 -4h55q2 0 2 -3t-2 -3zM249 533q1 -1 -1 -3t-3 -1l-124 85l-113 -85q-2 -1 -3 1t0 3q83 97 119 153q2 2 3 0q37 -56 122 -153z" />
    <glyph glyph-name="idieresis" unicode="&#xef;" horiz-adv-x="253" 
d="M234 0h-203q-1 0 -1 3t1 3h55q6 0 6 4v406q0 4 -6 4h-55q-1 0 -1 3t1 3h139q2 0 2 -3v-413q0 -4 7 -4h55q2 0 2 -3t-2 -3zM264 590q0 -17 -12 -29.5t-29 -12.5t-29 12.5t-12 29.5q0 18 12 30.5t29 12.5t29 -12.5t12 -30.5zM90 590q0 -17 -12 -29.5t-29 -12.5t-29 12.5
t-12 29.5q0 18 12 30.5t29 12.5t29 -12.5t12 -30.5z" />
    <glyph glyph-name="ntilde" unicode="&#xf1;" horiz-adv-x="511" 
d="M501 0h-203q-2 0 -2 3t2 3h55q6 0 6 4v317q0 49 -27 75.5t-57 26.5q-87 0 -113 -86v-333q0 -4 6 -4h55q1 0 1 -3t-1 -3h-202q-1 0 -1 3t1 3h55q6 0 6 4v407q0 3 -6 3h-55q-1 0 -1 3t1 3h138q3 0 3 -3v-66q13 40 44 59t69 19q77 0 121 -43.5t44 -123.5v-258q0 -4 6 -4h55
q2 0 2 -3t-2 -3zM435 671q0 -48 -30.5 -78.5t-76.5 -30.5q-37 0 -90 30t-72 30q-28 0 -43.5 -19.5t-15.5 -51.5q0 -2 -3.5 -2t-3.5 2q0 47 30.5 77t76.5 30q37 0 89.5 -29.5t72.5 -29.5q29 0 44.5 19.5t15.5 52.5q0 1 3 1t3 -1z" />
    <glyph glyph-name="ograve" unicode="&#xf2;" horiz-adv-x="498" 
d="M458 213q0 -92 -61 -157t-148 -65q-86 0 -147 65t-61 157t61 157t147 65q87 0 148 -65t61 -157zM376 213q0 149 -50 193q-27 23 -77 23q-51 0 -77 -23q-50 -44 -50 -193q0 -86 12 -128.5t38 -65.5q27 -23 77 -23q49 0 77 23q26 23 38 65.5t12 128.5zM319 524q0 -1 -1 -5
q-209 50 -209 137q0 12 8.5 20.5t21.5 8.5q18 0 32.5 -20.5t26 -47t43 -54.5t78.5 -39z" />
    <glyph glyph-name="oacute" unicode="&#xf3;" horiz-adv-x="498" 
d="M458 213q0 -92 -61 -157t-148 -65q-86 0 -147 65t-61 157t61 157t147 65q87 0 148 -65t61 -157zM376 213q0 149 -50 193q-27 23 -77 23q-51 0 -77 -23q-50 -44 -50 -193q0 -86 12 -128.5t38 -65.5q27 -23 77 -23q49 0 77 23q26 23 38 65.5t12 128.5zM379 656
q0 -87 -210 -137q-1 -1 -2 1q-1 4 1 4q47 11 79 39t43.5 54.5t26 47t32.5 20.5q13 0 21.5 -8.5t8.5 -20.5z" />
    <glyph glyph-name="ocircumflex" unicode="&#xf4;" horiz-adv-x="498" 
d="M458 213q0 -92 -61 -157t-148 -65q-86 0 -147 65t-61 157t61 157t147 65q87 0 148 -65t61 -157zM376 213q0 149 -50 193q-27 23 -77 23q-51 0 -77 -23q-50 -44 -50 -193q0 -86 12 -128.5t38 -65.5q27 -23 77 -23q49 0 77 23q26 23 38 65.5t12 128.5zM368 533
q1 -1 -0.5 -3t-3.5 -1l-124 85l-113 -85q-2 -1 -3 1t0 3q83 97 119 153q1 2 3 0q37 -56 122 -153z" />
    <glyph glyph-name="otilde" unicode="&#xf5;" horiz-adv-x="498" 
d="M458 213q0 -92 -61 -157t-148 -65q-86 0 -147 65t-61 157t61 157t147 65q87 0 148 -65t61 -157zM376 213q0 149 -50 193q-27 23 -77 23q-51 0 -77 -23q-50 -44 -50 -193q0 -86 12 -128.5t38 -65.5q27 -23 77 -23q49 0 77 23q26 23 38 65.5t12 128.5zM422 671
q0 -48 -30.5 -78.5t-76.5 -30.5q-37 0 -90 30t-72 30q-28 0 -43.5 -19.5t-15.5 -51.5q0 -2 -3.5 -2t-3.5 2q0 47 30.5 77t76.5 30q37 0 89.5 -29.5t72.5 -29.5q29 0 44.5 19.5t15.5 52.5q0 1 3 1t3 -1z" />
    <glyph glyph-name="odieresis" unicode="&#xf6;" horiz-adv-x="498" 
d="M458 213q0 -92 -61 -157t-148 -65q-86 0 -147 65t-61 157t61 157t147 65q87 0 148 -65t61 -157zM376 213q0 149 -50 193q-27 23 -77 23q-51 0 -77 -23q-50 -44 -50 -193q0 -86 12 -128.5t38 -65.5q27 -23 77 -23q49 0 77 23q26 23 38 65.5t12 128.5zM379 590
q0 -17 -12 -29.5t-29 -12.5t-29 12.5t-12 29.5q0 18 12 30.5t29 12.5t29 -12.5t12 -30.5zM205 590q0 -17 -12 -29.5t-29 -12.5t-29 12.5t-12 29.5q0 18 12 30.5t29 12.5t29 -12.5t12 -30.5z" />
    <glyph glyph-name="oslash" unicode="&#xf8;" horiz-adv-x="500" 
d="M459 213q0 -92 -61 -157t-148 -65q-68 0 -119 40l-39 -56q-1 -2 -4 2q-2 2 -1 3l38 55q-83 67 -83 178q0 92 61 157t147 65q68 0 120 -40l38 56q2 0 6 -4l-38 -56q83 -67 83 -178zM352 370q-9 23 -25 36q-27 23 -77 23q-51 0 -77 -23q-50 -44 -50 -193q0 -103 20 -151z
M378 213q0 101 -22 149l-210 -308q8 -18 27 -35q27 -23 77 -23q49 0 77 23q26 23 38.5 66t12.5 128z" />
    <glyph glyph-name="ugrave" unicode="&#xf9;" horiz-adv-x="501" 
d="M491 0h-139q-3 0 -3 3v66q-13 -40 -44 -59t-69 -19q-77 0 -120.5 40.5t-43.5 119.5v265q0 4 -6 4h-55q-1 0 -1 3t1 3h138q3 0 3 -3v-324q0 -49 27 -75.5t57 -26.5q87 0 113 86v333q0 4 -6 4h-55q-2 0 -2 3t2 3h139q2 0 2 -3v-414q0 -3 7 -3h55q1 0 1 -3t-1 -3zM341 524
q0 -1 -1 -5q-209 50 -209 137q0 12 8.5 20.5t21.5 8.5q18 0 32.5 -20.5t26 -47t43 -54.5t78.5 -39z" />
    <glyph glyph-name="uacute" unicode="&#xfa;" horiz-adv-x="501" 
d="M491 0h-139q-3 0 -3 3v66q-13 -40 -44 -59t-69 -19q-77 0 -120.5 40.5t-43.5 119.5v265q0 4 -6 4h-55q-1 0 -1 3t1 3h138q3 0 3 -3v-324q0 -49 27 -75.5t57 -26.5q87 0 113 86v333q0 4 -6 4h-55q-2 0 -2 3t2 3h139q2 0 2 -3v-414q0 -3 7 -3h55q1 0 1 -3t-1 -3zM372 656
q0 -87 -210 -137q-1 -1 -2 1q-1 4 1 4q47 11 79 39t43.5 54.5t26 47t32.5 20.5q13 0 21.5 -8.5t8.5 -20.5z" />
    <glyph glyph-name="ucircumflex" unicode="&#xfb;" horiz-adv-x="501" 
d="M491 0h-139q-3 0 -3 3v66q-13 -40 -44 -59t-69 -19q-77 0 -120.5 40.5t-43.5 119.5v265q0 4 -6 4h-55q-1 0 -1 3t1 3h138q3 0 3 -3v-324q0 -49 27 -75.5t57 -26.5q87 0 113 86v333q0 4 -6 4h-55q-2 0 -2 3t2 3h139q2 0 2 -3v-414q0 -3 7 -3h55q1 0 1 -3t-1 -3zM368 533
q1 -1 -0.5 -3t-3.5 -1l-124 85l-113 -85q-2 -1 -3 1t0 3q83 97 119 153q1 2 3 0q37 -56 122 -153z" />
    <glyph glyph-name="udieresis" unicode="&#xfc;" horiz-adv-x="501" 
d="M491 0h-139q-3 0 -3 3v66q-13 -40 -44 -59t-69 -19q-77 0 -120.5 40.5t-43.5 119.5v265q0 4 -6 4h-55q-1 0 -1 3t1 3h138q3 0 3 -3v-324q0 -49 27 -75.5t57 -26.5q87 0 113 86v333q0 4 -6 4h-55q-2 0 -2 3t2 3h139q2 0 2 -3v-414q0 -3 7 -3h55q1 0 1 -3t-1 -3zM368 590
q0 -17 -12 -29.5t-29 -12.5t-29 12.5t-12 29.5q0 18 12 30.5t29 12.5t29 -12.5t12 -30.5zM194 590q0 -17 -12 -29.5t-29 -12.5t-29 12.5t-12 29.5q0 18 12 30.5t29 12.5t29 -12.5t12 -30.5z" />
    <glyph glyph-name="ydieresis" unicode="&#xff;" horiz-adv-x="419" 
d="M447 420h-54q-5 0 -9.5 -7t-14.5 -35l-226 -615q-17 -45 -35 -63t-48 -18q-31 0 -51 15.5t-20 41.5q0 24 13.5 39.5t32.5 15.5t29.5 -10t10.5 -25q0 -12 -9.5 -25.5t-9.5 -23.5q0 -13 29 -13q28 0 51 64l85 228l-196 427q-1 4 -8 4h-47q-2 0 -2 3t2 3h198q2 0 2 -3t-2 -3
h-53q-4 0 -5 -1t0 -3l144 -331l109 293q14 41 7 42h-54q-2 0 -2 3t2 3h131q1 0 1 -3t-1 -3zM364 590q0 -17 -12 -29.5t-29 -12.5t-29 12.5t-12 29.5q0 18 12 30.5t29 12.5t29 -12.5t12 -30.5zM190 590q0 -17 -12 -29.5t-29 -12.5t-29 12.5t-12 29.5q0 18 12 30.5t29 12.5
t29 -12.5t12 -30.5z" />
    <glyph glyph-name="dotlessi" unicode="&#x131;" horiz-adv-x="253" 
d="M234 0h-203q-1 0 -1 3t1 3h55q6 0 6 4v406q0 4 -6 4h-55q-1 0 -1 3t1 3h139q2 0 2 -3v-413q0 -4 7 -4h55q2 0 2 -3t-2 -3z" />
    <glyph glyph-name="OE" unicode="&#x152;" horiz-adv-x="967" 
d="M942 3q0 -3 -3 -3h-560q-136 0 -232 104t-96 250q0 147 96 251t232 104h506q3 0 3 -3v-180q0 -2 -3 -2t-3 2q0 77 -42 127t-131 50h-126q-6 0 -6 -4v-332h51q60 0 93 30.5t33 83.5q0 1 2.5 1t2.5 -1v-234q0 -2 -2.5 -2t-2.5 2q0 52 -33 83t-93 31h-51v-351q0 -4 6 -4h129
q116 0 170 55.5t54 141.5q0 1 3 1t3 -1v-200zM467 10v689q0 4 -6 4h-82q-84 0 -128 -37q-85 -73 -85 -312q0 -137 20.5 -205t64.5 -106q44 -37 128 -37h82q6 0 6 4z" />
    <glyph glyph-name="oe" unicode="&#x153;" horiz-adv-x="778" 
d="M744 240q0 -3 -3 -3h-290v-24q0 -89 9.5 -130t34.5 -63q27 -23 74 -23q100 0 160 92q1 1 3 -0.5t1 -2.5q-63 -95 -164 -95q-51 0 -92.5 23.5t-65.5 65.5q-24 -41 -67.5 -65t-93.5 -24q-86 0 -147.5 65t-61.5 157t61.5 157t147.5 65q50 0 93 -23.5t68 -65.5q55 89 158 89
q84 0 129.5 -63.5t45.5 -131.5zM663 244q-3 127 -35 162q-23 23 -59 23q-47 0 -74 -23q-40 -36 -43 -162h211zM376 213q0 150 -50 193q-27 23 -76 23q-50 0 -78 -23q-50 -45 -50 -193q0 -85 12 -127.5t38 -65.5q28 -23 78 -23q49 0 76 23t38.5 65t11.5 128z" />
    <glyph glyph-name="Ydieresis" unicode="&#x178;" horiz-adv-x="640" 
d="M662 703h-77q-10 0 -31 -44l-157 -335v-314q0 -4 6 -4h89q2 0 2 -3t-2 -3h-300q-2 0 -2 3t2 3h89q7 0 7 4v299l-202 390q-2 4 -8 4h-92q-2 0 -2 3t2 3h332q1 0 1 -3t-1 -3h-107q-5 0 -3 -4l187 -365l153 327q18 41 12 42h-99q-1 0 -1 3t1 3h201q2 0 2 -3t-2 -3zM508 845
q0 -17 -12 -29.5t-29 -12.5t-29 12.5t-12 29.5q0 18 12 30.5t29 12.5t29 -12.5t12 -30.5zM334 845q0 -17 -12 -29.5t-29 -12.5t-29 12.5t-12 29.5q0 18 12 30.5t29 12.5t29 -12.5t12 -30.5z" />
    <glyph glyph-name="florin" unicode="&#x192;" horiz-adv-x="396" 
d="M499 668q0 -19 -14 -32.5t-33 -13.5q-39 0 -39 34q0 10 7.5 22t7.5 25q0 14 -9.5 23.5t-25.5 9.5q-13 0 -26 -7.5t-30.5 -33.5t-32 -67.5t-27.5 -117.5t-20 -176q0 -3 7 -3h90q2 0 2 -3t-2 -3h-90q-7 0 -8 -4l-1 -20q-5 -83 -15 -158t-31 -162.5t-50 -150.5t-76 -105
t-106 -42q-40 0 -66 21t-26 55q0 18 14 32t33 14q39 0 39 -34q0 -11 -7.5 -22.5t-7.5 -23.5q0 -15 9.5 -24.5t25.5 -9.5q31 0 55.5 19.5t41.5 67.5t28 92.5t20 132t14 146.5t12 172q0 4 -6 4h-90q-2 0 -2 3t2 3h90q7 0 7 3l1 20q11 174 85 282t163 108q35 0 61 -22t26 -54z
" />
    <glyph glyph-name="circumflex" unicode="&#x2c6;" horiz-adv-x="325" 
d="M294 533q1 -1 -0.5 -3t-3.5 -1l-124 85l-113 -85q-2 -1 -3 1t0 3q83 97 119 153q1 2 3 0q37 -56 122 -153z" />
    <glyph glyph-name="caron" unicode="&#x2c7;" horiz-adv-x="325" 
d="M283 666q-79 -91 -120 -153q-1 -1 -3 0q-44 65 -121 153q-1 2 0 3t3 0l124 -84l113 84q3 2 4 -3z" />
    <glyph glyph-name="breve" unicode="&#x2d8;" horiz-adv-x="378" 
d="M329 697q0 -59 -33.5 -107t-106.5 -48t-106.5 48t-33.5 107q0 1 3 1t3 -1q0 -46 31 -76.5t103 -30.5t103 30.5t31 76.5q0 1 3 1t3 -1z" />
    <glyph glyph-name="dotaccent" unicode="&#x2d9;" horiz-adv-x="245" 
d="M164 590q0 -17 -12 -29.5t-29 -12.5t-29 12.5t-12 29.5q0 18 12 30.5t29 12.5t29 -12.5t12 -30.5z" />
    <glyph glyph-name="ring" unicode="&#x2da;" horiz-adv-x="282" 
d="M218 608q0 -32 -22.5 -54.5t-54.5 -22.5q-31 0 -54 22.5t-23 54.5t23 54.5t54 22.5q32 0 54.5 -22.5t22.5 -54.5zM211 608q0 29 -20.5 50t-49.5 21q-28 0 -48.5 -21t-20.5 -50t20.5 -50t48.5 -21q29 0 49.5 21t20.5 50z" />
    <glyph glyph-name="ogonek" unicode="&#x2db;" horiz-adv-x="272" 
d="M221 -169q-32 -45 -80 -45q-36 0 -57 22t-21 56t33.5 72t89.5 66q3 0 4 -4q-80 -43 -80 -125q0 -36 18 -51.5t43 -15.5q26 0 48 29q1 2 2 -0.5t0 -3.5z" />
    <glyph glyph-name="tilde" unicode="&#x2dc;" horiz-adv-x="404" 
d="M369 671q0 -48 -30.5 -78.5t-76.5 -30.5q-37 0 -90 30t-72 30q-28 0 -43.5 -19.5t-15.5 -51.5q0 -2 -3.5 -2t-3.5 2q0 47 30.5 77t76.5 30q37 0 89.5 -29.5t72.5 -29.5q29 0 44.5 19.5t15.5 52.5q0 1 3 1t3 -1z" />
    <glyph glyph-name="hungarumlaut" unicode="&#x2dd;" horiz-adv-x="544" 
d="M448 658q0 -36 -46.5 -73.5t-165.5 -65.5q-1 -1 -2 1q-1 4 1 4q47 11 79 39.5t44 55.5t26.5 48t32.5 21q14 0 22.5 -9t8.5 -21zM270 658q0 -36 -46.5 -73.5t-165.5 -65.5q-1 -1 -2 1q-1 4 1 4q47 11 79 39.5t44 55.5t26.5 48t32.5 21q14 0 22.5 -9t8.5 -21z" />
    <glyph glyph-name="Omega" unicode="&#x3a9;" horiz-adv-x="543" 
d="M603 668q0 -18 -12.5 -32t-30.5 -14q-21 0 -32 9.5t-11 24.5q0 10 6.5 21t6.5 25q0 15 -9.5 24.5t-25.5 9.5q-25 0 -43 -28t-18 -90v-188q0 -4 6 -4h83q1 0 1 -3t-1 -3h-83q-6 0 -6 -4v-406q0 -4 6 -4h55q1 0 1 -3t-1 -3h-202q-1 0 -1 3t1 3h55q6 0 6 4v406q0 4 -6 4
h-160q-6 0 -6 -4v-406q0 -4 6 -4h55q1 0 1 -3t-1 -3h-203q-2 0 -2 3t2 3h55q7 0 7 4v406q0 4 -7 4h-69q-2 0 -2 3t2 3h69q7 0 7 4v12q0 158 41 226.5t119 68.5q35 0 62 -22t27 -54q0 -19 -12.5 -32.5t-31.5 -13.5q-42 0 -42 34q0 11 6 22t6 24q0 15 -9.5 24.5t-25.5 9.5
q-25 0 -42.5 -27.5t-17.5 -90.5v-181q0 -4 6 -4h160q6 0 6 4v19q0 158 41.5 226.5t120.5 68.5q35 0 61 -22t26 -54z" />
    <glyph glyph-name="endash" unicode="&#x2013;" horiz-adv-x="566" 
d="M530 233h-494q-2 0 -2 3t2 3h494q2 0 2 -3t-2 -3z" />
    <glyph glyph-name="emdash" unicode="&#x2014;" horiz-adv-x="1060" 
d="M1024 233h-988q-2 0 -2 3t2 3h988q2 0 2 -3t-2 -3z" />
    <glyph glyph-name="quoteleft" unicode="&#x2018;" horiz-adv-x="162" 
d="M136 716q-16 -6 -26 -15q-32 -26 -32 -53q0 -29 29 -49q20 -15 20 -39q0 -20 -13 -34t-32 -14q-22 0 -34.5 16.5t-12.5 43.5q0 37 31 87t69 62l2 -4z" />
    <glyph glyph-name="quoteright" unicode="&#x2019;" horiz-adv-x="163" 
d="M130 666q0 -37 -31 -87t-69 -62l-2 6q11 3 26 14q32 26 32 54t-29 48q-19 14 -19 39q0 20 13 34t32 14q22 0 34.5 -16t12.5 -44z" />
    <glyph glyph-name="quotesinglbase" unicode="&#x201a;" horiz-adv-x="163" 
d="M130 24q0 -38 -31 -88t-69 -61l-2 4q16 6 26 15q32 26 32 54q0 29 -29 49q-19 14 -19 39q0 20 13 33.5t32 13.5q22 0 34.5 -16t12.5 -43z" />
    <glyph glyph-name="quotedblleft" unicode="&#x201c;" horiz-adv-x="293" 
d="M265 716q-16 -6 -26 -15q-32 -26 -32 -53q0 -29 29 -49q19 -14 19 -39q0 -20 -13 -34t-31 -14q-47 0 -47 60q0 37 30.5 87t68.5 62q1 1 2 -1q2 -4 0 -4zM136 716q-16 -6 -26 -15q-32 -26 -32 -53q0 -29 29 -49q20 -15 20 -39q0 -20 -13 -34t-32 -14q-22 0 -34.5 16.5
t-12.5 43.5q0 37 31 87t69 62l2 -4z" />
    <glyph glyph-name="quotedblright" unicode="&#x201d;" horiz-adv-x="293" 
d="M258 666q0 -37 -31 -87t-68 -62l-3 5l1 1q11 3 26 14q32 26 32 54t-29 48q-19 14 -19 39q0 20 13 34t32 14q46 0 46 -60zM130 666q0 -37 -31 -87t-69 -62l-2 6q11 3 26 14q32 26 32 54t-29 48q-19 14 -19 39q0 20 13 34t32 14q22 0 34.5 -16t12.5 -44z" />
    <glyph glyph-name="quotedblbase" unicode="&#x201e;" horiz-adv-x="293" 
d="M259 24q0 -37 -31 -87.5t-69 -61.5l-3 3l1 1q16 6 26 15q32 26 32 54q0 29 -29 49q-19 14 -19 39q0 20 13 33.5t32 13.5q22 0 34.5 -16t12.5 -43zM130 24q0 -38 -31 -88t-69 -61l-2 4q16 6 26 15q32 26 32 54q0 29 -29 49q-19 14 -19 39q0 20 13 33.5t32 13.5
q22 0 34.5 -16t12.5 -43z" />
    <glyph glyph-name="dagger" unicode="&#x2020;" horiz-adv-x="597" 
d="M570 376q0 -18 -10.5 -31t-25.5 -13q-39 0 -39 34q0 8 4 20t4 21q0 23 -25.5 36.5t-49.5 13.5q-59 0 -86.5 -25t-27.5 -90q0 -54 34 -68q2 0 0.5 -2.5t-2.5 -1.5q-30 14 -38 -120.5t-8 -466.5q0 -1 -2 -1t-2 1q0 328 -8 464.5t-38 122.5q-1 -1 -2 1.5t1 2.5q33 15 33 68
q0 65 -28 90t-87 25q-24 0 -49 -13t-25 -37q0 -9 4 -21t4 -20q0 -34 -39 -34q-15 0 -26 13t-11 31q0 30 43.5 58.5t98.5 28.5q86 0 107 -52q0 16 -5 48.5t-5 52.5q0 21 9.5 57t9.5 44t-14.5 34t-14.5 49q0 22 11.5 35t32.5 13q20 0 32.5 -13t12.5 -35q0 -23 -15 -49t-15 -34
t9 -44t9 -57q0 -20 -4.5 -52.5t-4.5 -48.5q21 52 106 52q55 0 98.5 -28.5t43.5 -58.5z" />
    <glyph glyph-name="daggerdbl" unicode="&#x2021;" horiz-adv-x="582" 
d="M551 -6q0 -30 -37.5 -57t-92.5 -27q-83 0 -106 64q0 -16 5 -41.5t5 -45.5q0 -21 -9 -43t-9 -30q0 -9 14 -36.5t14 -46.5q0 -22 -12 -35t-32 -13q-21 0 -33 13t-12 35q0 19 14.5 46.5t14.5 36.5q0 8 -9 30t-9 43q0 20 5 45.5t5 41.5q-23 -64 -107 -64q-54 0 -91 27t-37 57
q0 19 9.5 30.5t26.5 11.5q40 0 40 -32q0 -8 -4 -19.5t-4 -20.5q0 -24 19 -36t41 -12q114 0 114 126q0 11 -1 20t-3.5 15t-4 10t-6 6.5t-6 3.5t-6 3t-5.5 2q-2 0 0 4q1 2 2 1q6 -3 13 -3q31 0 31 109q0 110 -31 110q-7 0 -13 -3q-2 -1 -3 3q0 1 1 2l6 2q6 2 8 3.5t6.5 5.5
t6 9.5t3.5 15.5t2 23q0 127 -114 127q-23 0 -41.5 -12t-18.5 -37q0 -8 4 -20t4 -20q0 -31 -40 -31q-17 0 -26.5 11.5t-9.5 29.5q0 30 37 57.5t91 27.5q84 0 107 -64q0 16 -5 41.5t-5 45.5q0 21 9 43t9 30q0 9 -14.5 36.5t-14.5 46.5q0 22 12 35t33 13q20 0 32 -13t12 -35
q0 -19 -14 -46.5t-14 -36.5q0 -8 9 -30t9 -43q0 -20 -5 -45.5t-5 -41.5q23 64 106 64q55 0 92.5 -27.5t37.5 -57.5q0 -18 -10 -29.5t-27 -11.5q-40 0 -40 31q0 8 4.5 20t4.5 20q0 24 -19.5 36.5t-42.5 12.5q-113 0 -113 -127q0 -13 2 -23t4 -15.5t6 -9.5t6.5 -5.5t7.5 -3.5
t6 -2q0 -2 -1 -5q-7 3 -13 3q-32 0 -32 -110q0 -109 32 -109q5 0 13 3q1 1 2 -1q1 -4 -1 -4q-1 0 -5 -2l-6 -3t-6 -3.5t-6 -6.5t-4.5 -10t-3.5 -15t-1 -20q0 -126 113 -126q23 0 42.5 12t19.5 36q0 9 -4.5 20.5t-4.5 19.5q0 32 40 32q17 0 27 -11.5t10 -30.5z" />
    <glyph glyph-name="bullet" unicode="&#x2022;" horiz-adv-x="310" 
d="M259 354q0 -43 -30.5 -74t-72.5 -31q-44 0 -74.5 30.5t-30.5 74.5t30.5 75t74.5 31q42 0 72.5 -31t30.5 -75z" />
    <glyph glyph-name="ellipsis" unicode="&#x2026;" horiz-adv-x="576" 
d="M525 35q0 -20 -13 -34t-32 -14q-18 0 -31 14t-13 34q0 19 13 33t31 14q19 0 32 -13.5t13 -33.5zM334 35q0 -20 -13.5 -34t-32.5 -14t-32 14t-13 34t13 33.5t32 13.5t32.5 -14t13.5 -33zM141 35q0 -20 -13 -34t-32 -14q-18 0 -31.5 14.5t-13.5 33.5t13.5 33t31.5 14
q19 0 32 -13.5t13 -33.5z" />
    <glyph glyph-name="perthousand" unicode="&#x2030;" horiz-adv-x="1098" 
d="M1062 220q0 -82 -67.5 -155.5t-161.5 -73.5q-53 0 -86 34t-33 92q0 82 68 155.5t162 73.5q52 0 85 -34t33 -92zM384 587q0 -82 -67.5 -155.5t-161.5 -73.5q-52 0 -85.5 34t-33.5 92q0 82 67.5 155.5t161.5 73.5q52 0 85.5 -34t33.5 -92zM586 725l-447 -749q-1 -2 -5 2
l-1 2l448 749q1 2 4 -1q2 -2 1 -3zM683 220q0 -82 -68 -155.5t-162 -73.5q-53 0 -86 34t-33 92q0 82 68 155.5t162 73.5q53 0 86 -34t33 -92zM1002 272q0 37 -13 52.5t-46 15.5q-43 0 -71 -18q-46 -29 -71.5 -113t-25.5 -144q0 -37 13 -52.5t46 -15.5q42 0 70 18
q47 29 72.5 113t25.5 144zM324 639q0 37 -13 52.5t-46 15.5q-43 0 -71 -18q-46 -29 -71.5 -113t-25.5 -144q0 -37 13 -52.5t46 -15.5q42 0 70 18q46 29 72 113t26 144zM623 272q0 37 -13 52.5t-46 15.5q-42 0 -72 -18q-45 -29 -71 -113t-26 -144q0 -37 13 -52.5t46 -15.5
q41 0 71 18q46 29 72 113t26 144z" />
    <glyph glyph-name="guilsinglleft" unicode="&#x2039;" horiz-adv-x="227" 
d="M190 50q0 -3 -4.5 -3t-4.5 3q0 36 -32 74t-59 56t-50 30q-4 2 0 4q15 8 34 21t45.5 34.5t44 50t17.5 55.5q0 3 4.5 3t4.5 -3q0 -42 -26 -89.5t-53 -73.5q27 -27 53 -73.5t26 -88.5z" />
    <glyph glyph-name="guilsinglright" unicode="&#x203a;" horiz-adv-x="227" 
d="M187 210q-23 -12 -50 -30t-59 -56t-32 -74q0 -3 -4.5 -3t-4.5 3q0 42 26 88.5t53 73.5q-27 26 -53 73.5t-26 89.5q0 3 4.5 3t4.5 -3q0 -27 17.5 -55.5t44 -50t45.5 -34.5t34 -21q4 -2 0 -4z" />
    <glyph glyph-name="fraction" unicode="&#x2044;" horiz-adv-x="539" 
d="M496 725l-448 -750q-1 -2 -4 1q-2 2 -1 3l447 749q2 0 6 -3z" />
    <glyph glyph-name="trademark" unicode="&#x2122;" horiz-adv-x="394" 
d="M380 559h-69q-1 0 -1 2t1 2h20l2 1v131l-54 -140q0 -1 -1 -1t-2 1l-56 141v-132q0 -1 1 -1h21v-4h-51v4h21l2 1v139h-2h-21v6h49q3 0 4 -4l43 -114l43 114l3 4h47q1 0 1 -3t-1 -3h-20h-1v-139q0 -1 1 -1h20q1 0 1 -2t-1 -2zM164 663q0 -1 -3 -1t-3 1q0 40 -43 40h-6h-2
v-139q0 -1 2 -1h20v-4h-70q-1 0 -1 2t1 2h21l1 1v139h-1h-6q-43 0 -43 -40q0 -1 -3 -1t-3 1v46h1h137h1v-46z" />
    <glyph glyph-name="radical" unicode="&#x221a;" horiz-adv-x="730" 
d="M719 0h-202q-1 0 -1 3t1 3h55q6 0 6 4v410h-152q-6 0 -6 -4v-406q0 -4 6 -4h55q1 0 1 -3t-1 -3h-202q-2 0 -2 3t2 3h54q7 0 7 4v406q0 4 -7 4h-145q-7 0 -7 -4v-406q0 -4 7 -4h55q1 0 1 -3t-1 -3h-203q-2 0 -2 3t2 3h55q7 0 7 4v406q0 4 -7 4h-69q-2 0 -2 3t2 3h69
q7 0 7 4v19q0 155 44 221.5t138 66.5q72 0 105 -60q48 67 133 67q24 0 46 -9t23 -9q4 0 31 9t33 9q3 0 3 -3v-731q0 -4 6 -4h55q2 0 2 -3t-2 -3zM578 426v289q0 8 -18 14.5t-38 6.5q-45 0 -73.5 -28.5t-28.5 -89.5v-188q0 -4 6 -4h152zM385 669q-34 60 -101 60
q-103 0 -103 -118v-181q0 -4 7 -4h145q7 0 7 4v19q0 148 45 220z" />
    <glyph glyph-name="approxequal" unicode="&#x2248;" horiz-adv-x="740" 
d="M719 0h-202q-1 0 -1 3t1 3h55q6 0 6 4v406q0 4 -6 4h-146q-6 0 -6 -4v-406q0 -4 6 -4h55q1 0 1 -3t-1 -3h-202q-2 0 -2 3t2 3h54q7 0 7 4v406q0 4 -7 4h-145q-7 0 -7 -4v-406q0 -4 7 -4h55q1 0 1 -3t-1 -3h-203q-2 0 -2 3t2 3h55q7 0 7 4v406q0 4 -7 4h-69q-2 0 -2 3t2 3
h69q7 0 7 4v19q0 155 44 221.5t138 66.5q69 0 103 -57q44 64 146 64q57 0 94.5 -36t37.5 -81q0 -19 -13 -33.5t-32 -14.5q-21 0 -32.5 10t-11.5 25q0 11 8.5 27.5t8.5 30.5q0 64 -80 64q-41 0 -67 -28.5t-26 -89.5v-188q0 -4 6 -4h229q3 0 3 -3v-413q0 -4 6 -4h55q2 0 2 -3
t-2 -3zM382 674q-35 55 -98 55q-103 0 -103 -118v-181q0 -4 7 -4h145q7 0 7 4v19q0 158 42 225z" />
    <glyph glyph-name="uni25FC" unicode="&#x25fc;" horiz-adv-x="425" 
d="M0 425h425v-425h-425v425z" />
    <glyph glyph-name="apple" unicode="&#xf8ff;" horiz-adv-x="967" 
d="M867 0h-767v750h767v-750zM820 520q0 2 -2 2q-8 2 -9 9l-8 33q-1 1 -1 4q0 4 8 5q1 0 1 1q0 2 -2 2q-3 0 -7 -0.5t-7 -0.5t-7 0.5t-6 0.5v-1q0 -2 1 -2q6 -1 9 -9l3 -14h-25l-4 14v4q0 4 7 5v1q0 2 -1 2q-3 0 -7 -0.5t-7 -0.5q-2 0 -6 0.5t-7 0.5v-1v-2q8 -1 11 -9l7 -33
q1 -1 1 -4q0 -4 -8 -5v-1q0 -2 1 -2q3 0 7.5 0.5t7.5 0.5t6.5 -0.5t5.5 -0.5v1v2q-9 2 -9 9l-4 15h25l3 -15q1 -1 1 -4q0 -4 -7 -5v-1q0 -2 1 -2q3 0 7 0.5t7 0.5t7 -0.5t6 -0.5q1 0 1 1zM559 686q-1 2 -2 6t-2 6q-2 -1 -15 -1t-16 1q0 -2 -2 -12h1h1q3 9 9 9q3 0 3 -3v-22
q0 -5 -5 -6q-1 0 -1 -1t1 -1h9h8q1 0 1 1t-1 1q-5 1 -5 6v22q0 3 3 3q8 0 11 -9h2zM694 540q0 15 -11 26.5t-25 11.5q-8 0 -15 -5.5t-7 -16.5q0 -15 11 -26.5t25 -11.5q8 0 15 5.5t7 16.5zM503 662v1v1q-6 1 -6 6v19q0 6 6 6v1v1h-9h-9v-1v-1q5 0 5 -6v-8h-17v8q0 6 5 6v1v1
h-9h-8q-1 0 -1 -1t1 -1q5 0 5 -6v-19q0 -5 -5 -6q-1 0 -1 -1t1 -1h8h9v1v1q-5 1 -5 6v9h17v-9q0 -5 -5 -6v-1v-1h9h9zM825 378v62h-147v-62h36v28h11v-65h-14v-33h81v33h-14v65h11v-28h36zM587 536q0 11 -13 18q4 4 4 9t-6 10t-14 5q-13 0 -13 -12q0 -6 5 -6q4 0 4 3
q0 2 -1.5 3.5t-1.5 2.5q0 6 7 6q10 0 10 -12q0 -4 -2 -6h-8q-8 0 -8 -6t8 -6q6 0 11 5q6 -4 6 -15q0 -14 -12 -14t-12 9q0 3 3 3l2 -1q1 -1 3 -1q4 0 4 5t-7 5q-9 0 -9 -10q0 -13 16 -13q24 0 24 18zM826 619v4h-685v-4h685zM439 663l-1 1q-5 1 -5 6v19q0 6 5 6q1 0 1 1
l-1 1h-16h-12q0 -6 -2 -10q1 -1 2 -1v1q3 8 9 8h3q4 0 4 -4v-10h-4q-6 0 -6 5q0 1 -1 1t-1 -1v-6v-6q0 -1 1 -1l1 1q0 6 6 6h4v-12q0 -3 -4 -3h-3q-7 0 -12 9l-1 -1q0 -2 1.5 -5.5t2.5 -5.5h12h16q1 0 1 1zM497 520q0 2 -1 2q-7 2 -10 9l-7 33q-1 1 -1 4q0 4 7 5q1 0 1 1
l-1 2q-2 0 -12 -0.5t-13 -0.5t-10 0.5t-10 0.5q1 -2 1 -7q0 -1 -0.5 -4.5t-0.5 -5.5q0 -1 2 -1q1 0 1 1q1 13 14 13h4q5 0 6 -6l3 -16h-4q-9 0 -12 9q0 1 -2 1q-1 0 -1 -1q1 -2 2 -5.5t1 -5.5q1 -2 1.5 -6t0.5 -6h2h1q-1 11 8 11h5l3 -16q1 -1 1 -4q0 -4 -8 -5q-1 0 -1 -1
q1 -2 2 -2q3 0 7 0.5t7 0.5t7 -0.5t7 -0.5v1zM823 173q-1 2 -2 2q-8 1 -9 9l-9 32v4q0 4 8 5l1 1q0 2 -2 2h-25h-19v-6v-11l1 -1l1 1q3 13 14 13h4q5 0 6 -6l4 -15h-5q-9 0 -12 9h-1h-2q1 -3 2 -6.5t1 -5.5q0 -1 1 -5t2 -7h1h1q-1 11 8 11h5l3 -15v-2l1 -2q0 -4 -8 -5v-2
q0 -2 1 -2q3 0 7.5 0.5t7.5 0.5t7 -0.5t6 -0.5q1 1 1 2zM826 476v4h-685v-4h685zM644 406v34h-81v-34h11l-15 -23l-15 23h10v34h-62v-34h12l37 -46v-19h-14v-33h81v33h-15v20l37 45h14zM399 521q0 8 -13 9q-3 4 -5 17t-7.5 22t-16.5 9q-5 0 -9 -3.5t-4 -6.5q0 -5 5 -5
q4 0 4 6t5 6q6 0 7.5 -7.5t3.5 -19t8 -18.5q-8 0 -12.5 -6.5t-8.5 -6.5q-5 0 -5 4q0 2 1 3t1 2q0 4 -5 4t-5 -6q0 -11 13 -11q10 0 16 6t11 6q5 -7 12 -7q4 0 4 3zM725 192q0 15 -11 26.5t-25 11.5q-8 0 -14.5 -5.5t-6.5 -16.5q0 -15 11 -26.5t24 -11.5q8 0 15 5.5t7 16.5z
M292 536q0 12 -13 18q4 4 4 9t-6 10t-14 5q-5 0 -9 -3.5t-4 -8.5q0 -6 5 -6t5 3q0 2 -1.5 3.5t-1.5 2.5q0 6 6 6q10 0 10 -12q0 -2 -1 -4v-2h-9q-7 0 -7 -6t7 -6t12 5q6 -6 6 -15q0 -14 -12 -14t-12 9q0 3 2 3l1 -1q2 -1 4 -1q5 0 5 5t-8 5q-9 0 -9 -10q0 -13 17 -13
q23 0 23 18zM620 225v1q0 2 -1 2h-15h-14v-1q0 -2 1 -2q9 -1 10 -9l5 -21q2 -8 2 -10q0 -10 -13 -10q-15 0 -20 22l-4 19q0 1 -1 2v2q0 4 8 5v2v1h-12h-11v-1q0 -2 1 -2q10 -1 11 -9l5 -20q7 -26 26 -26q21 0 21 16q0 2 -2 8l-5 22v2l-1 2q0 4 9 5zM455 308v33h-14v65h14v34
h-96q-21 0 -34 -11.5t-13 -28.5q0 -18 13 -29t34 -11h30v-19h-15v-33h81zM826 272v4h-685v-4h685zM694 47v1v1q-6 0 -6 5l-1 20q0 5 6 5v2v1q-1 0 -2.5 -0.5t-2.5 -0.5t-2.5 0.5t-2.5 0.5l-24 -25v17q0 5 6 5v2v1q-1 0 -4 -0.5t-4 -0.5t-3 0.5t-4 0.5v-1v-2q6 0 6 -5v-28h2
h1l25 27l1 -19q0 -5 -5 -5l-1 -1q0 -1 1 -1h6h8zM203 520l-1 2q-8 2 -11 9l-7 33q-1 1 -1 4q0 4 8 5v1v2q-3 0 -7 -0.5t-6 -0.5t-6.5 0.5t-7.5 0.5q-20 0 -20 -13t19 -17l-8 -16q-5 -8 -14 -9q-1 0 -1 -2q0 -1 2 -1t8 0.5t10 0.5l12 23q1 3 5 3l4 -14v-4q0 -4 -8 -5v-1
q0 -2 1 -2q2 0 7 0.5t8 0.5t7 -0.5t6 -0.5q1 0 1 1zM522 173l-1 2q-9 1 -9 9l-7 32q-1 1 -1 3q0 5 9 6l1 1q0 2 -2 2h-5h-9l-30 -40l-4 28q-2 8 7 9l1 1q0 2 -2 2q-1 0 -4.5 -0.5t-6.5 -0.5q-2 0 -5 0.5t-5 0.5v-1v-2q8 -1 10 -9l8 -45q0 -1 1 -1h2l31 44l5 -30q2 -8 -6 -9
q-1 0 -1 -2l1 -2q1 0 5 0.5t7 0.5q2 0 5 -0.5t4 -0.5t1 2zM632 46v2v1q-6 0 -6 5v20q0 5 6 5v2v1q-2 0 -8 -0.5t-8 -0.5q-3 0 -6.5 0.5t-5.5 0.5q-2 -8 -2 -10v-1q1 0 1 1q2 7 10 7h2q4 0 4 -4v-9h-4q-5 0 -6 5q0 1 -1 1v-1v-7v-6h1q1 6 6 6h4v-11q0 -4 -4 -4h-2q-9 0 -12 9
h-1q-1 0 -1 -1q3 -4 4 -11q4 1 12 1q13 0 17 -1zM582 81v1q-2 0 -4 -0.5t-3 -0.5t-3.5 0.5t-4.5 0.5v-1v-2q2 0 2 -3v-2l-9 -19l-6 9l5 9q1 6 6 6q1 1 1 2l-1 1q-2 0 -3.5 -0.5t-3.5 -0.5q-1 0 -3 0.5t-4 0.5q-1 0 -2.5 -0.5t-2.5 -0.5t-3 0.5t-4 0.5v-1q0 -2 1 -2q4 0 7 -6
l3 -5l-7 -13l-8 18v3q0 3 2 3q1 0 1 2q0 1 -1 1t-2.5 -0.5t-3.5 -0.5q-1 0 -2.5 0.5t-2.5 0.5v-1v-2q3 0 6 -6l12 -27h1h1l7 15l9 -15h1l12 27q4 6 6 6q1 0 1 2zM826 128v4h-685v-4h685zM277 308v33h-14v65h14v34h-141v-62h41v28h33v-20h-24v-24h24v-21h-33v28h-41v-61h141z
M413 171v2q0 2 -1 2q-9 1 -10 9l-8 32v4q0 4 7 5v1v2h-15q-3 0 -8 0.5t-7 0.5q-10 0 -17.5 -6t-7.5 -17q0 -15 10.5 -24.5t24.5 -9.5h15q13 0 17 -1zM479 81v1q-1 0 -3.5 -0.5t-4.5 -0.5t-4.5 0.5t-3.5 0.5l-1 -1q0 -2 1 -2q2 0 2 -2t-1 -3l-6 -9l-6 9l-1 2q0 3 4 3v2v1
q-1 0 -4 -0.5t-4 -0.5t-3 0.5t-3 0.5v-1v-2q4 0 8 -5l8 -12v-8q0 -5 -5 -5v-1v-2q1 0 3.5 0.5t5.5 0.5q1 0 4 -0.5t4 -0.5t1 2q0 1 -1 1q-5 0 -5 5v8l8 12q2 5 7 5v2zM306 173l-1 2q-9 1 -10 9l-8 32v4q0 4 7 5l1 1q0 2 -2 2h-12h-14q-19 0 -19 -12q0 -6 5.5 -11t12.5 -6
l-9 -16q-3 -7 -12 -10q-1 0 -1 -1l1 -2q10 2 18 2l12 22q2 3 6 3l3 -13v-4q0 -4 -7 -5q-1 0 -1 -2l1 -2q3 0 7.5 0.5t7.5 0.5t7 -0.5t6 -0.5q1 1 1 2zM424 64q0 18 -20 18q-19 0 -19 -18t19 -18q20 0 20 18zM364 48q0 1 -1 1q-5 0 -5 5v20q0 5 5 5q1 0 1 2q0 1 -1 1t-4 -0.5
t-5 -0.5t-4.5 0.5t-4.5 0.5q-12 0 -12 -9q0 -6 8 -9l-8 -11q-2 -4 -7 -4v-1v-1h6h6l6 11q4 5 7 5v-9q0 -5 -5 -5l-1 -1q0 -2 1 -2t3.5 0.5t4.5 0.5q3 0 5.5 -0.5t3.5 -0.5t1 2zM202 215q2 2 0 2q-7 13 -18 13q-14 0 -14 -18v-5q-7 23 -24 23q-9 0 -9 -12v-1h3q0 6 8 6
q15 0 24 -33l1 -6v-4q0 -4 -7 -5v-2q0 -2 1 -2q3 0 7.5 0.5t7.5 0.5q2 0 6 -0.5t6 -0.5q1 1 1 2l-1 2q-9 1 -10 9l-2 8q-3 9 -3 17q0 13 9 13q5 0 12 -7h2zM308 46v2v1q-6 0 -6 5v20q0 5 6 5v2v1q-1 0 -4 -0.5t-5 -0.5t-4.5 0.5t-4.5 0.5v-1v-2q6 0 6 -5v-10q-2 0 -4 3l-8 8
q-2 2 -2 3t3 1v2v1q-1 0 -3 -0.5t-4 -0.5t-3.5 0.5t-2.5 0.5v-1v-2q4 0 8 -4l9 -9l-13 -13q-4 -4 -7 -4l-1 -1q0 -2 1 -2t3.5 0.5t4.5 0.5q1 0 4.5 -0.5t5.5 -0.5v2v1q-3 0 -3 2q0 1 1 2l7 8q2 2 4 2v-9q0 -5 -6 -5v-1v-2q2 0 4.5 0.5t4.5 0.5t5 -0.5t4 -0.5zM683 535
q0 -14 -12 -14q-9 0 -16.5 12t-7.5 27t12 15q9 0 16.5 -12t7.5 -28zM565 553q-3 -4 -7 -4t-4 2q0 3 4 3q5 0 7 -1zM713 188q0 -15 -10 -15t-17 12t-7 28q0 14 10 14t17 -12t7 -27zM270 553q-3 -4 -7 -4q-3 0 -3 2q0 3 3 3q5 0 7 -1zM389 384h-11q-13 0 -13 11t13 11h11v-22z
M176 548h-5q-15 0 -15 15q0 9 8 9q7 0 9 -6zM554 77q0 -1 -3 -6l-2 5q0 3 2 3q3 0 3 -2zM392 182q0 -6 -4 -6h-5q-11 0 -18.5 9.5t-7.5 21.5q0 18 14 18l6 -1q4 0 6 -6zM280 201h-5q-15 0 -15 14q0 10 8 10q7 0 7 -7zM416 64q0 -16 -12 -16t-12 16q0 17 12 17t12 -17z
M351 65h-3q-8 0 -8 8q0 6 7 6q4 0 4 -4v-10z" />
    <glyph glyph-name="fi" unicode="&#xfb01;" horiz-adv-x="501" 
d="M481 0h-202q-1 0 -1 3t1 3h55q6 0 6 4v406q0 4 -6 4h-146q-6 0 -6 -4v-406q0 -4 6 -4h55q1 0 1 -3t-1 -3h-203q-2 0 -2 3t2 3h55q7 0 7 4v406q0 4 -7 4h-69q-2 0 -2 3t2 3h69q7 0 7 4v19q0 163 44.5 229t147.5 66q57 0 94.5 -36t37.5 -81q0 -19 -12.5 -34t-31.5 -15
q-22 0 -33.5 10.5t-11.5 26.5q0 10 8.5 26.5t8.5 30.5q0 64 -81 64q-40 0 -65.5 -28.5t-25.5 -89.5v-188q0 -4 6 -4h229q3 0 3 -3v-413q0 -4 6 -4h55q1 0 1 -3t-1 -3z" />
    <glyph glyph-name="fl" unicode="&#xfb02;" horiz-adv-x="491" 
d="M481 0h-202q-1 0 -1 3t1 3h55q6 0 6 4v410h-152q-6 0 -6 -4v-406q0 -4 6 -4h55q1 0 1 -3t-1 -3h-203q-2 0 -2 3t2 3h55q7 0 7 4v406q0 4 -7 4h-69q-2 0 -2 3t2 3h69q7 0 7 4v19q0 295 182 295q24 0 46 -9l22 -9q5 0 31.5 9t33.5 9q3 0 3 -3v-731q0 -4 6 -4h55q1 0 1 -3
t-1 -3zM340 426v289q0 8 -18 14.5t-38 6.5q-45 0 -73.5 -28.5t-28.5 -89.5v-188q0 -4 6 -4h152z" />
    </font>
</defs>
</svg>
